<?xml version="1.0" standalone="no"?>
<!DOCTYPE svg PUBLIC "-//W3C//DTD SVG 1.1//EN" "http://www.w3.org/Graphics/SVG/1.1/DTD/svg11.dtd" >
<svg xmlns="http://www.w3.org/2000/svg" xmlns:xlink="http://www.w3.org/1999/xlink" version="1.1">
<metadata>
Created by FontForge 20190801 at Sun Aug 19 17:32:08 2018
 By www-data
Copyright (c) 2016 Swiss Typefaces Sarl. All rights reserved. |DCNT
</metadata>
<defs>
<font id="SuisseIntlThin" horiz-adv-x="0" >
  <font-face 
    font-family="SuisseIntlThin"
    font-weight="275"
    font-stretch="normal"
    units-per-em="1000"
    panose-1="2 11 5 4 0 0 0 0 0 0"
    ascent="750"
    descent="-250"
    x-height="538"
    cap-height="725"
    bbox="-194 -595 2812 1070"
    underline-thickness="70"
    underline-position="-110"
    unicode-range="U+0020-FEFC"
  />
<missing-glyph horiz-adv-x="500" 
d="M0 0v725h500v-725h-500zM239 362l-220 334v-667zM260 362l221 -333v667zM250 346l-217 -327h433zM33 706l217 -328l216 328h-433z" />
    <glyph glyph-name="uniFC43" unicode="&#xfedf;&#xfef0;" horiz-adv-x="876" arabic-form="isolated" 
d="M743 725h37v-534q0 -94 -46 -143q-28 -31 -80 -42q-52 -106 -133 -163q-82 -58 -213 -58q-122 0 -187.5 65t-65.5 189q0 114 45 246h35q-45 -122 -45 -232q0 -228 227 -228q204 0 295 175h-22h-149l8 40h141q153 0 153 148v537z" />
    <glyph glyph-name="uniFC86" unicode="&#xfee0;&#xfef0;" horiz-adv-x="912" arabic-form="final" 
d="M721 725h37v-537q0 -148 154 -148q10 0 10 -9v-22q0 -9 -10 -9q-98 0 -145 48l-15 18q-37 -32 -67 -47q-10 -6 -30 -11q-52 -109 -134 -165q-82 -58 -213 -58q-122 0 -187.5 65t-65.5 189q0 114 45 246h35q-45 -122 -45 -232q0 -228 227 -228q204 0 295 175h-22h-149
l8 40h141q82 0 146 56q-15 40 -15 95v534z" />
    <glyph glyph-name="uniFEF5" unicode="&#xfedf;&#xfe82;" horiz-adv-x="583" arabic-form="isolated" 
d="M387 775h37v-229q0 -84 -20 -156q-7 -27 -13 -42l37 -34q62 -56 85.5 -96t23.5 -83q0 -62 -43.5 -98.5t-124.5 -36.5h-321l-18 40q193 111 272 222q27 36 43 73l-277 257l3 8h46l244 -225q4 9 5 16q21 71 21 155v229zM342 256q-44 -65 -109 -118q-65 -52 -145 -98h294
q54 0 85.5 26.5t31.5 67.5q0 60 -73 127l-53 48q-16 -31 -31 -53zM67 755q23 0 60 -18.5t61 -18.5q43 0 77 22l-1 -35q-40 -22 -77 -22q-26 0 -61 18.5t-54 18.5q-38 0 -45 -39h-33q2 31 21.5 52.5t51.5 21.5z" />
    <glyph glyph-name="uniFEF6" unicode="&#xfee0;&#xfe82;" horiz-adv-x="679" arabic-form="final" 
d="M488 725h37v-537q0 -148 154 -148q10 0 10 -9v-22q0 -9 -10 -9q-99 0 -145 48l-3 3q-18 -8 -48 -19q-101 -32 -207 -32q-139 0 -241 34v37q106 -31 241 -31h11v28q0 43 -6 91q-9 69 -93 441h40q68 -294 88 -435q4 -24 4 -59q1 -17 -1 -65q42 1 93 10q52 9 100 27
q-24 45 -24 113v534zM147 756q23 0 60 -18.5t61 -18.5q43 0 77 22l-1 -35q-40 -22 -77 -22q-26 0 -61 18.5t-54 18.5q-38 0 -45 -39h-33q2 31 21.5 52.5t51.5 21.5z" />
    <glyph glyph-name="uniFEF7" unicode="&#xfedf;&#xfe84;" horiz-adv-x="583" arabic-form="isolated" 
d="M387 775h37v-229q0 -84 -20 -156q-7 -27 -13 -42l37 -34q62 -56 85.5 -96t23.5 -83q0 -62 -43.5 -98.5t-124.5 -36.5h-321l-18 40q193 111 272 222q27 36 43 73l-277 257l3 8h46l244 -225q4 9 5 16q21 71 21 155v229zM342 256q-44 -65 -109 -118q-65 -52 -145 -98h294
q54 0 85.5 26.5t31.5 67.5q0 60 -73 127l-53 48q-16 -31 -31 -53zM123 705h89l-10 -32h-143q-37 0 -75 -12v30q38 14 75 14h3q-9 6 -17 16q-17 22 -17 47q0 36 24 59.5t61 23.5q26 0 69 -19v-31q-39 15 -61 15q-29 0 -44.5 -14.5t-15.5 -39.5q0 -24 19 -40q15 -15 43 -17z
" />
    <glyph glyph-name="uniFEF8" unicode="&#xfee0;&#xfe84;" horiz-adv-x="679" arabic-form="final" 
d="M488 725h37v-537q0 -148 154 -148q10 0 10 -9v-22q0 -9 -10 -9q-99 0 -145 48l-3 3q-18 -8 -48 -19q-101 -32 -207 -32q-139 0 -241 34v37q106 -31 241 -31h11v28q0 43 -6 91q-9 69 -93 441h40q68 -294 88 -435q4 -24 4 -59q1 -17 -1 -65q42 1 93 10q52 9 100 27
q-24 45 -24 113v534zM227 705h82l-10 -32h-143q-37 0 -75 -12v30q39 14 75 14h2q-9 6 -17 16q-16 20 -16 47q0 36 24 59.5t61 23.5q26 0 69 -19v-31q-39 15 -61 15q-29 0 -44.5 -14.5t-15.5 -39.5q0 -24 19 -40.5t50 -16.5z" />
    <glyph glyph-name="uniFEF9" unicode="&#xfedf;&#xfe88;" horiz-adv-x="583" arabic-form="isolated" 
d="M387 775h37v-229q0 -84 -20 -156q-7 -27 -13 -42l37 -34q62 -56 85.5 -96t23.5 -83q0 -62 -43.5 -98.5t-124.5 -36.5h-321l-18 40q193 111 272 222q27 36 43 73l-277 257l3 8h46l244 -225q4 9 5 16q21 71 21 155v229zM342 256q-44 -65 -109 -118q-65 -52 -145 -98h294
q54 0 85.5 26.5t31.5 67.5q0 60 -73 127l-53 48q-16 -31 -31 -53zM326 -209h88l-10 -32h-143q-37 0 -75 -12v30q38 14 75 14h3q-9 6 -17 16q-16 20 -16 47q0 35 24 58.5t61 23.5q28 0 69 -18v-31q-39 15 -62 15q-29 0 -44.5 -14.5t-15.5 -39.5q0 -24 19 -40q17 -16 44 -17z
" />
    <glyph glyph-name="uniFEFA" unicode="&#xfee0;&#xfe88;" horiz-adv-x="679" arabic-form="final" 
d="M488 725h37v-537q0 -148 154 -148q10 0 10 -9v-22q0 -9 -10 -9q-99 0 -145 48l-3 3q-18 -8 -48 -19q-101 -32 -207 -32q-139 0 -241 34v37q106 -31 241 -31h11v28q0 43 -6 91q-9 69 -93 441h40q68 -294 88 -435q4 -24 4 -59q1 -17 -1 -65q42 1 93 10q52 9 100 27
q-24 45 -24 113v534zM320 -212h88l-10 -32h-143q-37 0 -75 -12v30q38 14 75 14h2q-10 7 -16 16q-16 20 -16 47q0 35 24 58.5t61 23.5q28 0 69 -18v-31q-39 15 -62 15q-29 0 -44.5 -14.5t-15.5 -39.5q0 -23 18 -40q17 -16 45 -17z" />
    <glyph glyph-name="uniFEFB" unicode="&#xfedf;&#xfe8e;" horiz-adv-x="583" arabic-form="isolated" 
d="M387 775h37v-229q0 -84 -20 -156q-7 -27 -13 -42l37 -34q62 -56 85.5 -96t23.5 -83q0 -62 -43.5 -98.5t-124.5 -36.5h-321l-18 40q193 111 272 222q27 36 43 73l-277 257l3 8h46l244 -225q4 9 5 16q21 71 21 155v229zM342 256q-44 -65 -109 -118q-65 -52 -145 -98h294
q54 0 85.5 26.5t31.5 67.5q0 60 -73 127l-53 48q-16 -31 -31 -53z" />
    <glyph glyph-name="uniFEFC" unicode="&#xfee0;&#xfe8e;" horiz-adv-x="679" arabic-form="final" 
d="M488 725h37v-537q0 -148 154 -148q10 0 10 -9v-22q0 -9 -10 -9q-99 0 -145 48l-3 3q-18 -8 -48 -19q-101 -32 -207 -32q-139 0 -241 34v37q106 -31 241 -31h11v28q0 43 -6 91q-9 69 -93 441h40q68 -294 88 -435q4 -24 4 -59q1 -17 -1 -65q42 1 93 10q52 9 100 27
q-24 45 -24 113v534z" />
    <glyph glyph-name="uni0407_uni0407" unicode="&#x407;&#x407;" horiz-adv-x="367" 
d="M349 877h41v-96h-41v96zM161 877h41v-96h-41v96zM127 725v-725h-41v725h41zM282 725v-725h-41v725h41zM-22 877h41v-96h-41v96z" />
    <glyph glyph-name="uni0457_uni0457" unicode="&#x457;&#x457;" horiz-adv-x="341" 
d="M-12 725h39v-96h-39v96zM151 725h39v-96h-39v96zM221 538h39v-538h-39v538zM82 538h39v-538h-39v538zM315 725h39v-96h-39v96z" />
    <glyph glyph-name="uniFEDF_uniFB51" unicode="&#xfedf;&#xfb51;" horiz-adv-x="583" 
d="M387 775h37v-229q0 -84 -20 -156q-7 -27 -13 -42l37 -34q62 -56 85.5 -96t23.5 -83q0 -62 -43.5 -98.5t-124.5 -36.5h-321l-18 40q193 111 272 222q27 36 43 73l-277 257l3 8h46l244 -225q4 9 5 16q21 71 21 155v229zM342 256q-44 -65 -109 -118q-65 -52 -145 -98h294
q54 0 85.5 26.5t31.5 67.5q0 60 -73 127l-53 48q-16 -31 -31 -53zM189 819q33 0 55 -21t22 -52q0 -42 -38 -65.5t-104 -23.5q-61 0 -135 29l10 29q32 -11 42 -13q48 60 79 88q34 29 69 29zM122 690q51 0 79 15t28 41q0 17 -13 28t-32 11q-37 0 -82 -53l-30 -37q32 -5 50 -5z
" />
    <glyph glyph-name="uniFEE0_uniFB51" unicode="&#xfee0;&#xfb51;" horiz-adv-x="679" 
d="M488 725h37v-537q0 -148 154 -148q10 0 10 -9v-22q0 -9 -10 -9q-99 0 -145 48l-3 3q-18 -8 -48 -19q-101 -32 -207 -32q-139 0 -241 34v37q106 -31 241 -31h11v28q0 43 -6 91q-9 69 -93 441h40q68 -294 88 -435q4 -24 4 -59q1 -17 -1 -65q42 1 93 10q52 9 100 27
q-24 45 -24 113v534zM232 822q33 0 55 -21t22 -52q0 -42 -38 -65.5t-104 -23.5q-61 0 -135 29l10 29q32 -11 42 -13q43 55 79 88q34 29 69 29zM165 693q51 0 79 15t28 41q0 17 -13 28t-32 11q-37 0 -82 -53l-31 -37q32 -5 51 -5z" />
    <glyph glyph-name="uni066E.init" unicode="&#x66e;" horiz-adv-x="256" 
d="M119 485h38q34 -221 34 -294q0 -191 -191 -191q-10 0 -10 9v22q0 9 10 9q156 0 156 148q0 58 -37 297z" />
    <glyph glyph-name="uni066E.medi" unicode="&#x66e;" horiz-adv-x="313" 
d="M158 370h35q0 -108 -9 -176q-8 -57 -24 -96q34 -28 66 -42q36 -16 87 -16q10 0 10 -9v-22q0 -9 -10 -9q-55 0 -100 19q-34 15 -71 47l-17 -18q-51 -48 -125 -48q-10 0 -10 9v22q0 9 10 9q38 0 73 17.5t52 48.5q19 34 26 92.5t7 171.5z" />
    <glyph glyph-name="uni066E.fina" unicode="&#x66e;" horiz-adv-x="865" 
d="M710 370h35q0 -108 -9 -176q-8 -57 -24 -96q34 -28 66 -42q36 -16 87 -16q10 0 10 -9v-22q0 -9 -10 -9q-55 0 -100 19q-34 15 -71 47l-17 -18q-31 -30 -79 -42q-19 -4 -40 -6h-2h-4h-257q-116 0 -178 53t-62 158q0 86 33 229h35q-31 -141 -31 -221q0 -179 211 -179h249h4
h2q37 2 66 17q34 16 53 49q19 34 26 92.5t7 171.5z" />
    <glyph glyph-name="uni066F.fina" unicode="&#x66f;" horiz-adv-x="746" 
d="M489 454q77 0 125 -53.5t55 -146.5q9 -97 11 -211v-3h66q10 0 10 -9v-22q0 -9 -10 -9h-69q-14 -96 -86 -149q-88 -66 -253 -66q-121 0 -202 65.5t-81 188.5q0 112 45 246h35q-45 -118 -45 -240q2 -107 74 -163.5t193 -56.5q136 0 211 57q58 43 72 118h-92
q-131 0 -196 55.5t-63 169.5q2 102 55.5 165.5t144.5 63.5zM644 40v4q0 75 -12 205q-5 77 -45.5 121t-103.5 44q-71 0 -113 -52t-44 -135q-2 -97 54 -142t169 -45h95z" />
    <glyph glyph-name="uni06A1.init" unicode="&#x6a1;" horiz-adv-x="522" 
d="M261 464q89 0 147.5 -62.5t58.5 -156.5q0 -118 -69 -181.5t-200 -63.5h-198q-10 0 -10 9v22q0 9 10 9h131q-6 18 -10 27q-8 20 -26 51q-45 79 -46 140q-4 84 58 145t154 61zM168 40h41q104 0 161.5 51.5t57.5 146.5q0 82 -48 133.5t-126 51.5q-72 0 -120 -47.5
t-48 -115.5q0 -50 38 -123l27 -53q8 -14 17 -44z" />
    <glyph glyph-name="uni06A1.medi" unicode="&#x6a1;" horiz-adv-x="553" 
d="M274 464q92 0 151.5 -59.5t59.5 -148.5q0 -78 -46 -133q-37 -44 -102 -73q43 -6 71 -7q63 -3 145 -3q10 0 10 -9v-22q0 -9 -10 -9q-141 0 -235 19l-43 9q-55 -16 -113 -21q-69 -7 -162 -7q-10 0 -10 9v22q0 9 10 9q84 0 142 3q24 1 68 7q-59 25 -96 70q-47 59 -47 136
q0 91 59 149.5t148 58.5zM401 132q46 49 46 122q0 74 -49.5 122t-125.5 48q-72 0 -119.5 -48t-47.5 -123q0 -70 46 -122q45 -51 124 -72q82 24 126 73z" />
    <glyph glyph-name="uni06A1.fina" unicode="&#x6a1;" horiz-adv-x="973" 
d="M694 464q92 0 151.5 -59.5t59.5 -148.5q0 -78 -46 -133q-37 -44 -102 -73q43 -6 71 -7q63 -3 145 -3q10 0 10 -9v-22q0 -9 -10 -9q-141 0 -235 19l-43 9q-55 -16 -113 -21q-69 -7 -162 -7q-10 0 -10 9v22q0 9 10 9q84 0 142 3q24 1 68 7q-59 25 -96 70q-47 59 -47 136
q0 91 59 149.5t148 58.5zM821 132q46 49 46 122q0 74 -49.5 122t-125.5 48q-72 0 -119.5 -48t-47.5 -123q0 -70 46 -122q45 -51 124 -72q82 24 126 73zM78 388h35q-20 -103 -20 -169q0 -179 211 -179h127q10 0 10 -9v-22q0 -9 -10 -9h-135q-116 0 -178 53t-62 158
q0 70 22 177z" />
    <glyph glyph-name="uni06AA.init" unicode="&#x6aa;" horiz-adv-x="790" 
d="M320 725h47l-278 -319h412q106 0 169.5 -55.5t63.5 -150.5q0 -92 -59 -146t-156 -54h-519q-10 0 -10 9v22q0 9 10 9h507q90 0 140 41.5t50 118.5q0 78 -50.5 122t-138.5 44h-440l-24 42z" />
    <glyph glyph-name="uni06AA.medi" unicode="&#x6aa;" horiz-adv-x="857" 
d="M320 725h47l-278 -319h412q106 0 169.5 -55.5t63.5 -150.5q0 -92 -59 -146t-156 -54h-519q-10 0 -10 9v22q0 9 10 9h507q90 0 140 41.5t50 118.5q0 78 -50.5 122t-138.5 44h-440l-24 42zM666 86l24 24q43 -37 81 -53.5t86 -16.5q10 0 10 -9v-22q0 -9 -10 -9
q-108 0 -191 86z" />
    <glyph glyph-name="uni06AA.fina" unicode="&#x6aa;" horiz-adv-x="955" 
d="M408 725h48l-279 -319h423q106 0 169.5 -55.5t63.5 -150.5q0 -92 -59 -146t-156 -54h-375q-70 0 -119 16.5t-104 59.5l22 29q52 -37 96.5 -51t104.5 -14h363q90 0 140 41.5t50 118.5q0 78 -50.5 122t-138.5 44h-451l-23 42zM764 86l24 24q43 -37 81 -53.5t86 -16.5
q10 0 10 -9v-22q0 -9 -10 -9q-108 0 -191 86z" />
    <glyph glyph-name="uni06C2.fina" unicode="&#x6c2;" horiz-adv-x="547" 
d="M384 538h37v-353q0 -79 29 -112t97 -33q10 0 10 -9v-22q0 -9 -10 -9q-88 0 -125 43l-6 6q-45 -25 -84 -36q-40 -13 -85 -13q-86 0 -139 48.5t-53 130.5q0 77 45 139.5t138 100.5q65 27 146 37v82zM269 394q-84 -29 -130.5 -83.5t-46.5 -126.5q0 -66 42.5 -105t114.5 -39
q42 0 76 10q31 9 75 30q-16 39 -16 107v233q-60 -7 -115 -26zM422 638h89l-10 -32h-143q-37 0 -75 -12v30q38 14 75 14h3q-9 6 -17 16q-17 22 -17 47q0 36 24 59.5t61 23.5q26 0 69 -19v-31q-39 15 -61 15q-29 0 -44.5 -14.5t-15.5 -39.5q0 -24 19 -40q15 -15 43 -17z" />
    <glyph glyph-name="uni06C3.fina" unicode="&#x6c3;" horiz-adv-x="607" 
d="M286 411q63 0 102.5 -50t86.5 -175q56 -146 132 -146q10 0 10 -9v-22q0 -9 -10 -9q-54 0 -94 42t-79 145q-39 102 -69.5 142.5t-79.5 40.5t-86 -42t-86 -149l-37 -84l-31 15l37 84q53 119 98.5 168t105.5 49zM313 565l43 42l42 -42l-42 -42zM165 565l42 42l42 -42
l-42 -42z" />
    <glyph glyph-name="uniFB51" unicode="&#x671;" horiz-adv-x="285" arabic-form="final" 
d="M95 600h37v-412q0 -148 154 -148q10 0 10 -9v-22q0 -9 -10 -9q-191 0 -191 191v409zM162 801q33 0 55 -21t22 -52q0 -42 -38 -65.5t-104 -23.5q-61 0 -135 29l10 29q32 -11 42 -13q48 60 79 88q34 29 69 29zM95 672q51 0 79 15t28 41q0 17 -13 28t-32 11q-37 0 -82 -53
l-30 -37q32 -5 50 -5z" />
    <glyph glyph-name="uniFB57" unicode="&#x67e;" horiz-adv-x="865" arabic-form="final" 
d="M710 370h35q0 -108 -9 -176q-8 -57 -24 -96q34 -28 66 -42q36 -16 87 -16q10 0 10 -9v-22q0 -9 -10 -9q-55 0 -100 19q-34 15 -71 47l-17 -18q-51 -48 -125 -48h-257q-116 0 -178 53t-62 158q0 86 33 229h35q-31 -141 -31 -221q0 -179 211 -179h246h3q38 0 73 17.5
t52 48.5q19 34 26 92.5t7 171.5zM474 -144l43 42l42 -42l-42 -43zM306 -144l42 42l42 -42l-42 -43zM397 -259l36 36l36 -36l-35 -36z" />
    <glyph glyph-name="uniFB58" unicode="&#x67e;" horiz-adv-x="324" arabic-form="initial" 
d="M189 485h37q34 -221 34 -294q0 -191 -190 -191h-70q-10 0 -10 9v22q0 9 10 9h70q155 0 155 148q0 48 -36 297zM169 -146l43 42l42 -42l-42 -43zM92 -261l36 36l36 -36l-35 -36zM1 -146l42 42l42 -42l-42 -43z" />
    <glyph glyph-name="uniFB59" unicode="&#x67e;" horiz-adv-x="369" arabic-form="medial" 
d="M185 370h35q0 -169 -21 -237q-3 -14 -7 -22q83 -71 177 -71q10 0 10 -9v-22q0 -9 -10 -9q-57 0 -108 22q-46 20 -86 57q-25 -36 -66 -57q-44 -22 -109 -22q-10 0 -10 9v22q0 9 10 9q112 0 150 66q21 35 28 91.5t7 172.5zM210 -147l43 42l42 -42l-42 -43zM133 -262l36 36
l36 -36l-35 -36zM42 -147l42 42l42 -42l-42 -43z" />
    <glyph glyph-name="uniFB67" unicode="&#x679;" horiz-adv-x="865" arabic-form="final" 
d="M710 370h35q0 -108 -9 -176q-8 -57 -24 -96q34 -28 66 -42q36 -16 87 -16q10 0 10 -9v-22q0 -9 -10 -9q-55 0 -100 19q-34 15 -71 47l-17 -18q-51 -48 -125 -48h-3h-254q-116 0 -178 53t-62 158q0 86 33 229h35q-31 -141 -31 -221q0 -179 211 -179h246h3h4q37 2 68 17
q34 16 53 49q19 34 26 92.5t7 171.5zM358 646h33v-88l-6 -36q27 31 51 52q38 34 75 34q34 0 57 -21t23 -53q0 -44 -41 -69t-112 -25h-116l-19 33h43l12 15v158zM377 473h59q118 0 118 61q0 17 -13.5 28.5t-35.5 11.5q-29 0 -61 -30q-40 -40 -67 -71z" />
    <glyph glyph-name="uniFB68" unicode="&#x679;" horiz-adv-x="387" arabic-form="initial" 
d="M189 485h37q34 -221 34 -294q0 -191 -190 -191h-70q-10 0 -10 9v22q0 9 10 9h70q155 0 155 148q0 48 -36 297zM108 744h33v-88l-6 -37q27 32 52 53q37 34 74 34q34 0 57 -21t23 -53q0 -44 -41 -69t-112 -25h-116l-19 33h43l12 15v158zM128 571h58q118 0 118 61
q0 17 -13.5 28.5t-35.5 11.5q-29 0 -61 -30q-32 -32 -66 -71z" />
    <glyph glyph-name="uniFB69" unicode="&#x679;" horiz-adv-x="369" arabic-form="medial" 
d="M185 370h35q0 -169 -21 -237q-3 -14 -7 -22q83 -71 177 -71q10 0 10 -9v-22q0 -9 -10 -9q-57 0 -108 22q-46 20 -86 57q-25 -36 -66 -57q-44 -22 -109 -22q-10 0 -10 9v22q0 9 10 9q112 0 150 66q21 35 28 91.5t7 172.5zM104 647h33v-88l-6 -37q27 32 52 53q37 34 74 34
q34 0 57 -21t23 -53q0 -44 -41 -69t-112 -25h-116l-19 33h43l12 15v158zM124 474h58q118 0 118 61q0 17 -13.5 28.5t-35.5 11.5q-29 0 -61 -30q-32 -32 -66 -71z" />
    <glyph glyph-name="uniFB6B" unicode="&#x6a4;" horiz-adv-x="973" arabic-form="final" 
d="M694 464q92 0 151.5 -59.5t59.5 -148.5q0 -78 -46 -133q-37 -44 -102 -73q43 -6 71 -7q63 -3 145 -3q10 0 10 -9v-22q0 -9 -10 -9q-141 0 -235 19l-43 9q-55 -16 -113 -21q-69 -7 -162 -7q-10 0 -10 9v22q0 9 10 9q84 0 142 3q24 1 68 7q-59 25 -96 70q-47 59 -47 136
q0 91 59 149.5t148 58.5zM821 132q46 49 46 122q0 74 -49.5 122t-125.5 48q-72 0 -119.5 -48t-47.5 -123q0 -70 46 -122q45 -51 124 -72q82 24 126 73zM78 388h35q-20 -103 -20 -169q0 -179 211 -179h127q10 0 10 -9v-22q0 -9 -10 -9h-135q-116 0 -178 53t-62 158
q0 70 22 177zM746 620l43 42l42 -42l-42 -42zM578 620l42 42l42 -42l-42 -42zM670 730l35 36l36 -36l-35 -36z" />
    <glyph glyph-name="uniFB6C" unicode="&#x6a4;" horiz-adv-x="522" arabic-form="initial" 
d="M261 464q89 0 147.5 -62.5t58.5 -156.5q0 -118 -69 -181.5t-200 -63.5h-198q-10 0 -10 9v22q0 9 10 9h131q-6 18 -10 27q-8 20 -26 51q-45 79 -46 140q-4 84 58 145t154 61zM168 40h41q104 0 161.5 51.5t57.5 146.5q0 82 -48 133.5t-126 51.5q-72 0 -120 -47.5
t-48 -115.5q0 -50 38 -123l27 -53q8 -14 17 -44zM310 620l43 42l42 -42l-42 -42zM142 620l42 42l42 -42l-42 -42zM234 730l35 36l36 -36l-35 -36z" />
    <glyph glyph-name="uniFB6D" unicode="&#x6a4;" horiz-adv-x="553" arabic-form="medial" 
d="M274 464q92 0 151.5 -59.5t59.5 -148.5q0 -78 -46 -133q-37 -44 -102 -73q43 -6 71 -7q63 -3 145 -3q10 0 10 -9v-22q0 -9 -10 -9q-141 0 -235 19l-43 9q-55 -16 -113 -21q-69 -7 -162 -7q-10 0 -10 9v22q0 9 10 9q84 0 142 3q24 1 68 7q-59 25 -96 70q-47 59 -47 136
q0 91 59 149.5t148 58.5zM401 132q46 49 46 122q0 74 -49.5 122t-125.5 48q-72 0 -119.5 -48t-47.5 -123q0 -70 46 -122q45 -51 124 -72q82 24 126 73zM325 620l43 42l42 -42l-42 -42zM157 620l42 42l42 -42l-42 -42zM249 730l35 36l36 -36l-35 -36z" />
    <glyph glyph-name="uniFB7B" unicode="&#x686;" horiz-adv-x="651" arabic-form="final" 
d="M195 538q40 0 81 -26t76 -61.5t98.5 -83t135.5 -79.5l-10 -38q-50 -2 -75 -4v-93q0 -56 39.5 -84.5t112.5 -28.5q10 0 10 -9v-22q0 -9 -10 -9q-86 0 -135.5 38t-49.5 109v95q-60 -8 -107 -22q-131 -40 -200 -114.5t-69 -157.5q0 -94 74 -159l-30 -17q-81 68 -81 173
q0 88 63.5 169.5t195.5 127.5q86 31 203 38q-33 18 -60 36q-45 32 -101.5 83.5t-92 75t-73.5 23.5q-50 0 -120 -31v35q61 36 125 36zM381 -63l43 42l42 -42l-42 -43zM213 -63l42 42l42 -42l-42 -43zM304 -178l36 36l36 -36l-35 -36z" />
    <glyph glyph-name="uniFB7C" unicode="&#x686;" horiz-adv-x="606" arabic-form="initial" 
d="M186 449q40 0 80.5 -23t74.5 -54.5t96.5 -76t133.5 -75.5l-10 -38q-64 -15 -119.5 -40t-94 -48.5t-83.5 -45.5t-111 -35t-153 -13q-10 0 -10 9v22q0 9 10 9q81 0 150 15t106 31.5t96 47.5t91 45q34 15 73 27q-65 32 -109 65q-24 18 -64 51t-59 47t-47.5 26.5t-55.5 12.5
q-49 0 -117 -30v34q62 37 122 37zM326 -148l43 42l42 -42l-42 -43zM249 -263l36 36l36 -36l-35 -36zM158 -148l42 42l42 -42l-42 -43z" />
    <glyph glyph-name="uniFB7D" unicode="&#x686;" horiz-adv-x="637" arabic-form="medial" 
d="M186 449q40 0 80.5 -23t74.5 -54.5t96.5 -76t133.5 -75.5l-10 -38q-34 -8 -49 -13v-24q0 -105 125 -105q10 0 10 -9v-22q0 -9 -10 -9q-158 0 -158 141v16l-22 -8q-41 -17 -96.5 -48.5t-92 -50.5t-107 -34.5t-161.5 -15.5q-10 0 -10 9v22q0 9 10 9q81 0 150 15t106 31.5
t96 47.5t91 45q34 15 73 27q-65 32 -109 65q-24 18 -64 51t-59 47t-47.5 26.5t-55.5 12.5q-49 0 -117 -30v34q62 37 122 37zM326 -148l43 42l42 -42l-42 -43zM158 -148l42 42l42 -42l-42 -43zM249 -263l36 36l36 -36l-35 -36z" />
    <glyph glyph-name="uniFB89" unicode="&#x688;" horiz-adv-x="529" arabic-form="final" 
d="M25 34v37q105 -31 188 -31q90 0 178 35q-18 29 -34 80q-43 140 -69 330h40q25 -190 66 -327q19 -66 51.5 -92t83.5 -26q10 0 10 -9v-22q0 -9 -10 -9q-62 0 -105 35l-12 12q-55 -24 -99 -35q-49 -12 -100 -12q-87 0 -188 34zM185 744h33v-88l-6 -37q27 32 52 53
q37 34 74 34q34 0 57 -21t23 -53q0 -44 -41 -69t-112 -25h-116l-19 33h43l12 15v158zM205 571h58q118 0 118 61q0 17 -13.5 28.5t-35.5 11.5q-30 0 -61 -30q-32 -32 -66 -71z" />
    <glyph glyph-name="uniFB8B" unicode="&#x698;" horiz-adv-x="326" arabic-form="final" 
d="M136 440h37q13 -89 26 -216h1l7 -60q5 -41 17 -67.5t30.5 -38t34.5 -15t38 -3.5q10 0 10 -9v-22q0 -9 -10 -9q-58 0 -96 35q-13 11 -20 27v-33q0 -244 -237 -244v38q96 0 148.5 51.5t52.5 155.5q0 135 -39 410zM178 579l43 42l42 -42l-42 -42zM10 579l42 42l42 -42
l-42 -42zM102 689l35 36l36 -36l-35 -36z" />
    <glyph glyph-name="uniFB8D" unicode="&#x691;" horiz-adv-x="326" arabic-form="final" 
d="M48 724h33v-88l-6 -36q27 31 51 52q38 34 75 34q34 0 57 -21t23 -53q0 -44 -41 -69t-112 -25h-116l-19 33h43l12 15v158zM136 440h37q13 -89 26 -216h1l7 -60q5 -41 17 -67.5t30.5 -38t34.5 -15t38 -3.5q10 0 10 -9v-22q0 -9 -10 -9q-58 0 -96 35q-13 11 -20 27v-33
q0 -244 -237 -244v38q96 0 148.5 51.5t52.5 155.5q0 135 -39 410zM67 551h59q118 0 118 61q0 17 -13.5 28.5t-35.5 11.5q-30 0 -61 -30q-40 -40 -67 -71z" />
    <glyph glyph-name="uniFB8F" unicode="&#x6a9;" horiz-adv-x="987" arabic-form="final" 
d="M89 440h35q-31 -141 -31 -221q0 -179 211 -179h253q10 0 10 -9v-22q0 -9 -10 -9h-261q-116 0 -178 53t-62 158q0 86 33 229zM767 795h60v-4l-400 -293l220 -96q107 -46 157 -98.5t50 -120.5q0 -87 -66.5 -135t-186.5 -48h-279q-10 0 -10 9v22q0 9 10 9h285q93 0 151 38
t58 105q0 54 -45 98t-145 87l-244 107v37zM796 86l24 24q43 -37 81 -53.5t86 -16.5q10 0 10 -9v-22q0 -9 -10 -9q-108 0 -191 86z" />
    <glyph glyph-name="uniFB90" unicode="&#x6a9;" horiz-adv-x="577" arabic-form="initial" 
d="M445 795h60v-4l-400 -293l220 -96q107 -46 157 -98.5t50 -120.5q0 -87 -66.5 -135t-186.5 -48h-279q-10 0 -10 9v22q0 9 10 9h285q93 0 151 38t58 105q0 54 -45 98t-145 87l-244 107v37z" />
    <glyph glyph-name="uniFB91" unicode="&#x6a9;" horiz-adv-x="660" arabic-form="medial" 
d="M445 795h60v-4l-400 -293l220 -96q107 -46 157 -98.5t50 -120.5q0 -87 -66.5 -135t-186.5 -48h-279q-10 0 -10 9v22q0 9 10 9h285q93 0 151 38t58 105q0 54 -45 98t-145 87l-244 107v37zM469 86l24 24q43 -37 81 -53.5t86 -16.5q10 0 10 -9v-22q0 -9 -10 -9
q-108 0 -191 86z" />
    <glyph glyph-name="uniFB93" unicode="&#x6af;" horiz-adv-x="987" arabic-form="final" 
d="M89 440h35q-31 -141 -31 -221q0 -179 211 -179h253q10 0 10 -9v-22q0 -9 -10 -9h-261q-116 0 -178 53t-62 158q0 86 33 229zM767 795h60v-4l-400 -293l220 -96q107 -46 157 -98.5t50 -120.5q0 -87 -66.5 -135t-186.5 -48h-279q-10 0 -10 9v22q0 9 10 9h285q93 0 151 38
t58 105q0 54 -45 98t-145 87l-244 107v37zM796 86l24 24q43 -37 81 -53.5t86 -16.5q10 0 10 -9v-22q0 -9 -10 -9q-108 0 -191 86zM597 801v-3l-311 -222l-20 26l279 199h52z" />
    <glyph glyph-name="uniFB94" unicode="&#x6af;" horiz-adv-x="670" arabic-form="initial" 
d="M538 795h60v-4l-400 -293l220 -96q107 -46 157 -98.5t50 -120.5q0 -87 -66.5 -135t-186.5 -48h-279q-10 0 -10 9v22q0 9 10 9h285q93 0 151 38t58 105q0 54 -45 98t-145 87l-244 107v37zM344 801v-3l-311 -222l-20 26l279 199h52zM0 40h194q10 0 10 -9v-22q0 -9 -10 -9
h-194q-10 0 -10 9v22q0 9 10 9z" />
    <glyph glyph-name="uniFB95" unicode="&#x6af;" horiz-adv-x="746" arabic-form="medial" 
d="M531 795h60v-4l-400 -293l220 -96q107 -46 157 -98.5t50 -120.5q0 -87 -66.5 -135t-186.5 -48h-279q-10 0 -10 9v22q0 9 10 9h285q93 0 151 38t58 105q0 54 -45 98t-145 87l-244 107v37zM555 86l24 24q43 -37 81 -53.5t86 -16.5q10 0 10 -9v-22q0 -9 -10 -9
q-108 0 -191 86zM339 801v-3l-311 -222l-20 26l279 199h52zM0 40h194q10 0 10 -9v-22q0 -9 -10 -9h-194q-10 0 -10 9v22q0 9 10 9z" />
    <glyph glyph-name="uniFB9F" unicode="&#x6ba;" horiz-adv-x="668" arabic-form="final" 
d="M477 440h38q15 -100 24 -183q5 -36 6 -70l3 -23q5 -41 17 -67.5t30.5 -38t34.5 -15t38 -3.5q10 0 10 -9v-22q0 -9 -10 -9q-58 0 -96 35q-13 13 -25 35q-2 -51 -12 -94q-44 -191 -245 -191q-111 0 -173 66.5t-62 187.5q0 114 45 246h35q-45 -122 -45 -232
q0 -113 53 -170.5t155 -57.5q108 0 161 66.5t53 207.5q0 105 -35 341z" />
    <glyph glyph-name="uniFBA7" unicode="&#x6c1;" horiz-adv-x="607" arabic-form="final" 
d="M286 411q63 0 102.5 -50t86.5 -175q56 -146 132 -146q10 0 10 -9v-22q0 -9 -10 -9q-54 0 -94 42t-79 145q-39 102 -69.5 142.5t-79.5 40.5t-86 -42t-86 -149l-37 -84l-31 15l37 84q53 119 98.5 168t105.5 49z" />
    <glyph glyph-name="uniFBA8" unicode="&#x6c1;" horiz-adv-x="274" arabic-form="initial" 
d="M101 -78h35l-59 -122l20 -3l-7 -72h-50v75zM119 485h38q34 -221 34 -294q0 -191 -191 -191q-10 0 -10 9v22q0 9 10 9q156 0 156 148q0 58 -37 297z" />
    <glyph glyph-name="uniFBA9" unicode="&#x6c1;" horiz-adv-x="725" arabic-form="medial" 
d="M147 370h37v-354q0 -132 65 -191q63 -59 198 -60v115q0 77 43 118.5t122 41.5h113q10 0 10 -9v-22q0 -9 -10 -9h-113q-128 0 -128 -130v-103l-32 -42q-158 0 -231.5 70t-73.5 224v39l-8 -8q-50 -50 -139 -50q-10 0 -10 9v22q0 9 10 9q79 0 123 41q13 13 24 30v259z
M629 -78h35l-59 -122l20 -3l-7 -72h-50v75z" />
    <glyph glyph-name="uniFBAB" unicode="&#x6be;" horiz-adv-x="598" arabic-form="final" 
d="M341 538h38q148 -148 148 -282q0 -76 -54 -131q-23 -23 -52 -42q35 -19 72 -30q42 -13 105 -13q10 0 10 -9v-22q0 -9 -10 -9q-34 0 -66 6q-28 6 -43 11q19 -22 29 -45q16 -33 16 -68q0 -56 -41 -87.5t-111 -31.5q-84 0 -144 47t-87 132l-47 -27q-38 -26 -57 -41l-22 27
l58 43q23 17 58 35q-8 45 -8 91q0 234 208 446zM176 19l38 17l97 38q179 65 179 181q0 63 -37 130q-34 62 -94 122q-51 -51 -84 -101q-105 -153 -105 -307q0 -44 6 -80zM317 34q-49 -17 -81 -31q-32 -12 -51 -22q1 -1 1 -4q50 -152 206 -152q48 0 77.5 23t29.5 62
q0 37 -26 75q-25 37 -82 81q-35 -19 -74 -32z" />
    <glyph glyph-name="uniFBAC" unicode="&#x6be;" horiz-adv-x="742" arabic-form="initial" 
d="M238 609l1 40q211 0 329.5 -94t118.5 -247q0 -126 -78 -285l-42 -36q-69 0 -148 13q-68 10 -142 32q-19 -6 -44 -13q-82 -19 -233 -19q-10 0 -10 9v22q0 9 10 9q42 0 124 2q46 2 87 10q-61 28 -96 72q-45 57 -45 132q0 91 57.5 149.5t141.5 58.5q91 0 147.5 -59.5
t56.5 -148.5q0 -70 -45 -126q-36 -45 -99 -77q50 -10 111 -19q72 -8 130 -8q79 135 79 274q0 133 -104 221t-307 88zM390 139q45 51 45 115q0 75 -46.5 122.5t-121.5 47.5q-68 0 -113.5 -47t-45.5 -124q0 -65 44 -117q43 -50 117 -74q77 27 121 77z" />
    <glyph glyph-name="uniFBAD" unicode="&#x6be;" horiz-adv-x="538" arabic-form="medial" 
d="M281 538h39q146 -144 146 -278q0 -116 -98 -181q26 -14 65 -26q42 -13 105 -13q10 0 10 -9v-22q0 -9 -10 -9q-34 0 -66 6q-29 7 -42 11q19 -22 29 -45q16 -33 16 -68q0 -56 -41 -87.5t-111 -31.5q-84 0 -144 47t-87 132q-4 12 -10 38q-52 -2 -82 -2q-10 0 -10 9v22
q0 9 10 9q52 0 76 1q-2 30 -2 47q0 101 47 219t160 231zM321 96q108 57 108 162q0 66 -39 130q-34 59 -90 119q-54 -51 -91 -108q-52 -79 -75.5 -160t-23.5 -142q0 -19 2 -53q134 12 209 52zM118 5q1 -3 3.5 -14t4.5 -16q49 -150 207 -150q48 0 77.5 23t29.5 62q0 37 -26 75
q-21 32 -76 76q-83 -42 -220 -56z" />
    <glyph glyph-name="uniFBAF" unicode="&#x6d2;" horiz-adv-x="724" arabic-form="final" 
d="M259 40h465q10 0 10 -9v-22q0 -9 -10 -9h-478q-77 0 -115.5 -22.5t-37.5 -64.5q1 -47 40.5 -67.5t127.5 -20.5h321l-17 -40h-288q-119 0 -170 31t-51 97q-1 61 50.5 94t152.5 33z" />
    <glyph glyph-name="uniFBB1" unicode="&#x6d3;" horiz-adv-x="724" arabic-form="final" 
d="M259 40h465q10 0 10 -9v-22q0 -9 -10 -9h-478q-77 0 -115.5 -22.5t-37.5 -64.5q1 -47 40.5 -67.5t127.5 -20.5h321l-17 -40h-288q-119 0 -170 31t-51 97q-1 61 50.5 94t152.5 33zM337 225h86l-11 -35h-125q-42 0 -89 -14v32l26 8q21 8 37 8q7 0 10 1q-31 22 -31 60
q0 35 24 59t61 24q33 0 71 -18v-31q-42 14 -64 14q-27 0 -43.5 -14t-16.5 -39q0 -22 20 -39q18 -15 45 -16z" />
    <glyph glyph-name="uniFBFD" unicode="&#x6cc;" horiz-adv-x="690" arabic-form="final" 
d="M488 34v37q124 -31 202 -31q10 0 10 -9v-22q0 -9 -10 -9q-26 0 -39 1q-41 -102 -116 -157q-80 -59 -205 -59q-275 0 -275 254q0 114 45 246h35q-45 -122 -45 -232q0 -116 60 -172t187 -56q105 0 179 51q67 47 98 129l-15 3q-42 7 -111 26z" />
    <glyph glyph-name="uniFBFE" unicode="&#x6cc;" horiz-adv-x="324" arabic-form="initial" 
d="M189 485h37q34 -221 34 -294q0 -191 -190 -191h-70q-10 0 -10 9v22q0 9 10 9h70q155 0 155 148q0 48 -36 297zM163 -149l43 42l42 -42l-42 -42zM15 -149l42 42l42 -42l-42 -42z" />
    <glyph glyph-name="uniFBFF" unicode="&#x6cc;" horiz-adv-x="369" arabic-form="medial" 
d="M185 370h35q0 -169 -21 -237q-3 -14 -7 -22q83 -71 177 -71q10 0 10 -9v-22q0 -9 -10 -9q-57 0 -108 22q-46 20 -86 57q-25 -36 -66 -57q-44 -22 -109 -22q-10 0 -10 9v22q0 9 10 9q112 0 150 66q21 35 28 91.5t7 172.5zM210 -148l43 42l42 -42l-42 -42zM62 -148l42 42
l42 -42l-42 -42z" />
    <glyph glyph-name="uniFC02" unicode="&#xfc02;" horiz-adv-x="518" arabic-form="isolated" 
d="M413 532h8l22 -24q-137 -107 -137 -232q0 -58 21 -104q16 -34 40 -63l36 -15q31 -13 69 -35l-16 -33q-64 20 -119 51l-31 11q-64 20 -119 20t-80 -27t-25 -90q0 -61 36 -266h-37q-36 199 -36 281q0 142 141 142q44 0 81 -10q28 -7 46 -13q-17 31 -26 55q-18 49 -18 97
q0 150 144 255zM421 656h86l-11 -35h-125q-42 0 -89 -14v32l26 8q21 8 37 8q7 0 10 1q-31 22 -31 60q0 35 24 59t61 24q33 0 71 -18v-31q-42 14 -64 14q-27 0 -43.5 -14t-16.5 -39q0 -22 20 -39q18 -15 45 -16z" />
    <glyph glyph-name="uniFC03" unicode="&#xfc03;" horiz-adv-x="886" arabic-form="isolated" 
d="M723 485h37q34 -221 34 -294q0 -94 -46 -143q-34 -34 -96 -45q-42 -103 -117 -159q-80 -59 -205 -59q-275 0 -275 254q0 114 45 246h35q-45 -122 -45 -232q0 -116 60 -172t187 -56q105 0 179 51q64 43 96 124h-9h-162l8 40h154q156 0 156 148q0 48 -36 297zM749 595h86
l-11 -35h-125q-42 0 -89 -14v32l26 8q21 8 37 8q7 0 10 1q-31 22 -31 60q0 35 24 59t61 24q33 0 71 -18v-31q-42 14 -64 14q-27 0 -43.5 -14t-16.5 -39q0 -22 20 -39q18 -15 45 -16z" />
    <glyph glyph-name="uniFC04" unicode="&#xfc04;" horiz-adv-x="886" arabic-form="isolated" 
d="M723 485h37q34 -221 34 -294q0 -94 -46 -143q-34 -34 -96 -45q-42 -103 -117 -159q-80 -59 -205 -59q-275 0 -275 254q0 114 45 246h35q-45 -122 -45 -232q0 -116 60 -172t187 -56q105 0 179 51q64 43 96 124h-9h-162l8 40h154q156 0 156 148q0 48 -36 297zM749 595h86
l-11 -35h-125q-42 0 -89 -14v32l26 8q21 8 37 8q7 0 10 1q-31 22 -31 60q0 35 24 59t61 24q33 0 71 -18v-31q-42 14 -64 14q-27 0 -43.5 -14t-16.5 -39q0 -22 20 -39q18 -15 45 -16zM425 -338l43 42l42 -42l-42 -42zM277 -338l42 42l42 -42l-42 -42z" />
    <glyph glyph-name="uniFC08" unicode="&#xfc08;" horiz-adv-x="518" arabic-form="isolated" 
d="M413 532h8l22 -24q-137 -107 -137 -232q0 -58 21 -104q16 -34 40 -63l36 -15q31 -13 69 -35l-16 -33q-64 20 -119 51l-31 11q-64 20 -119 20t-80 -27t-25 -90q0 -61 36 -266h-37q-36 199 -36 281q0 142 141 142q44 0 81 -10q28 -7 46 -13q-17 31 -26 55q-18 49 -18 97
q0 150 144 255zM279 -157l42 42l43 -42l-42 -42z" />
    <glyph glyph-name="uniFC09" unicode="&#xfc09;" horiz-adv-x="859" arabic-form="isolated" 
d="M723 485h37q34 -221 34 -294q0 -94 -46 -143q-34 -34 -96 -45q-42 -103 -117 -159q-80 -59 -205 -59q-275 0 -275 254q0 114 45 246h35q-45 -122 -45 -232q0 -116 60 -172t187 -56q105 0 179 51q64 43 96 124h-9h-162l8 40h154q156 0 156 148q0 48 -36 297zM677 -156
l42 42l43 -42l-42 -42z" />
    <glyph glyph-name="uniFC0A" unicode="&#xfc0a;" horiz-adv-x="859" arabic-form="isolated" 
d="M723 485h37q34 -221 34 -294q0 -94 -46 -143q-34 -34 -96 -45q-42 -103 -117 -159q-80 -59 -205 -59q-275 0 -275 254q0 114 45 246h35q-45 -122 -45 -232q0 -116 60 -172t187 -56q105 0 179 51q64 43 96 124h-9h-162l8 40h154q156 0 156 148q0 48 -36 297zM677 -156
l42 42l43 -42l-42 -42zM425 -338l43 42l42 -42l-42 -42zM277 -338l42 42l42 -42l-42 -42z" />
    <glyph glyph-name="uniFC0E" unicode="&#xfc0e;" horiz-adv-x="518" arabic-form="isolated" 
d="M413 532h8l22 -24q-137 -107 -137 -232q0 -58 21 -104q16 -34 40 -63l36 -15q31 -13 69 -35l-16 -33q-64 20 -119 51l-31 11q-64 20 -119 20t-80 -27t-25 -90q0 -61 36 -266h-37q-36 199 -36 281q0 142 141 142q44 0 81 -10q28 -7 46 -13q-17 31 -26 55q-18 49 -18 97
q0 150 144 255zM425 677l43 42l42 -42l-42 -42zM277 677l42 42l42 -42l-42 -42z" />
    <glyph glyph-name="uniFC0F" unicode="&#xfc0f;" horiz-adv-x="887" arabic-form="isolated" 
d="M723 485h37q34 -221 34 -294q0 -94 -46 -143q-34 -34 -96 -45q-42 -103 -117 -159q-80 -59 -205 -59q-275 0 -275 254q0 114 45 246h35q-45 -122 -45 -232q0 -116 60 -172t187 -56q105 0 179 51q64 43 96 124h-9h-162l8 40h154q156 0 156 148q0 48 -36 297zM764 637
l43 42l42 -42l-42 -42zM616 637l42 42l42 -42l-42 -42z" />
    <glyph glyph-name="uniFC10" unicode="&#xfc10;" horiz-adv-x="887" arabic-form="isolated" 
d="M723 485h37q34 -221 34 -294q0 -94 -46 -143q-34 -34 -96 -45q-42 -103 -117 -159q-80 -59 -205 -59q-275 0 -275 254q0 114 45 246h35q-45 -122 -45 -232q0 -116 60 -172t187 -56q105 0 179 51q64 43 96 124h-9h-162l8 40h154q156 0 156 148q0 48 -36 297zM764 637
l43 42l42 -42l-42 -42zM616 637l42 42l42 -42l-42 -42zM425 -338l43 42l42 -42l-42 -42zM277 -338l42 42l42 -42l-42 -42z" />
    <glyph glyph-name="uniFC12" unicode="&#xfc12;" horiz-adv-x="518" arabic-form="isolated" 
d="M413 532h8l22 -24q-137 -107 -137 -232q0 -58 21 -104q16 -34 40 -63l36 -15q31 -13 69 -35l-16 -33q-64 20 -119 51l-31 11q-64 20 -119 20t-80 -27t-25 -90q0 -61 36 -266h-37q-36 199 -36 281q0 142 141 142q44 0 81 -10q28 -7 46 -13q-17 31 -26 55q-18 49 -18 97
q0 150 144 255zM438 665l43 42l42 -42l-42 -42zM270 665l42 42l42 -42l-42 -42zM362 775l35 36l36 -36l-35 -36z" />
    <glyph glyph-name="uniFC13" unicode="&#xfc13;" horiz-adv-x="897" arabic-form="isolated" 
d="M723 485h37q34 -221 34 -294q0 -94 -46 -143q-34 -34 -96 -45q-42 -103 -117 -159q-80 -59 -205 -59q-275 0 -275 254q0 114 45 246h35q-45 -122 -45 -232q0 -116 60 -172t187 -56q105 0 179 51q64 43 96 124h-9h-162l8 40h154q156 0 156 148q0 48 -36 297zM786 638
l43 42l42 -42l-42 -42zM618 638l42 42l42 -42l-42 -42zM710 748l35 36l36 -36l-35 -36z" />
    <glyph glyph-name="uniFC14" unicode="&#xfc14;" horiz-adv-x="897" arabic-form="isolated" 
d="M723 485h37q34 -221 34 -294q0 -94 -46 -143q-34 -34 -96 -45q-42 -103 -117 -159q-80 -59 -205 -59q-275 0 -275 254q0 114 45 246h35q-45 -122 -45 -232q0 -116 60 -172t187 -56q105 0 179 51q64 43 96 124h-9h-162l8 40h154q156 0 156 148q0 48 -36 297zM786 638
l43 42l42 -42l-42 -42zM618 638l42 42l42 -42l-42 -42zM710 748l35 36l36 -36l-35 -36zM425 -338l43 42l42 -42l-42 -42zM277 -338l42 42l42 -42l-42 -42z" />
    <glyph glyph-name="uniFC31" unicode="&#xfc31;" horiz-adv-x="863" arabic-form="isolated" 
d="M616 576q77 0 126 -48.5t55 -132.5q10 -152 10 -204q0 -172 -155 -189q-55 -111 -137.5 -164t-206.5 -53q-122 0 -187.5 65t-65.5 189q0 114 45 246h35q-45 -122 -45 -232q0 -228 227 -228q204 0 295 175h-171l7 40h168q84 0 119.5 39.5t35.5 133.5q-82 -38 -150 -38
q-88 0 -138.5 50.5t-50.5 140.5q0 95 51 152.5t133 57.5zM613 535q-64 0 -103.5 -45t-39.5 -121q0 -75 42 -114.5t118 -39.5q66 0 140 31q-1 59 -9 144q-6 69 -45.5 107t-102.5 38zM581 711l42 42l43 -42l-42 -42z" />
    <glyph glyph-name="uniFC32" unicode="&#xfc32;" horiz-adv-x="863" arabic-form="isolated" 
d="M616 576q77 0 126 -48.5t55 -132.5q10 -152 10 -204q0 -172 -155 -189q-55 -111 -137.5 -164t-206.5 -53q-122 0 -187.5 65t-65.5 189q0 114 45 246h35q-45 -122 -45 -232q0 -228 227 -228q204 0 295 175h-171l7 40h168q84 0 119.5 39.5t35.5 133.5q-82 -38 -150 -38
q-88 0 -138.5 50.5t-50.5 140.5q0 95 51 152.5t133 57.5zM613 535q-64 0 -103.5 -45t-39.5 -121q0 -75 42 -114.5t118 -39.5q66 0 140 31q-1 59 -9 144q-6 69 -45.5 107t-102.5 38zM581 711l42 42l43 -42l-42 -42zM399 -349l43 42l42 -42l-42 -42zM251 -349l42 42l42 -42
l-42 -42z" />
    <glyph glyph-name="uniFC35" unicode="&#xfc35;" horiz-adv-x="863" arabic-form="isolated" 
d="M616 576q77 0 126 -48.5t55 -132.5q10 -152 10 -204q0 -172 -155 -189q-55 -111 -137.5 -164t-206.5 -53q-122 0 -187.5 65t-65.5 189q0 114 45 246h35q-45 -122 -45 -232q0 -228 227 -228q204 0 295 175h-171l7 40h168q84 0 119.5 39.5t35.5 133.5q-82 -38 -150 -38
q-88 0 -138.5 50.5t-50.5 140.5q0 95 51 152.5t133 57.5zM613 535q-64 0 -103.5 -45t-39.5 -121q0 -75 42 -114.5t118 -39.5q66 0 140 31q-1 59 -9 144q-6 69 -45.5 107t-102.5 38zM661 707l43 42l42 -42l-42 -42zM513 707l42 42l42 -42l-42 -42z" />
    <glyph glyph-name="uniFC36" unicode="&#xfc36;" horiz-adv-x="863" arabic-form="isolated" 
d="M616 576q77 0 126 -48.5t55 -132.5q10 -152 10 -204q0 -172 -155 -189q-55 -111 -137.5 -164t-206.5 -53q-122 0 -187.5 65t-65.5 189q0 114 45 246h35q-45 -122 -45 -232q0 -228 227 -228q204 0 295 175h-171l7 40h168q84 0 119.5 39.5t35.5 133.5q-82 -38 -150 -38
q-88 0 -138.5 50.5t-50.5 140.5q0 95 51 152.5t133 57.5zM613 535q-64 0 -103.5 -45t-39.5 -121q0 -75 42 -114.5t118 -39.5q66 0 140 31q-1 59 -9 144q-6 69 -45.5 107t-102.5 38zM661 707l43 42l42 -42l-42 -42zM513 707l42 42l42 -42l-42 -42zM404 -349l43 42l42 -42
l-42 -42zM256 -349l42 42l42 -42l-42 -42z" />
    <glyph glyph-name="uniFC3D" unicode="&#xfc3d;" horiz-adv-x="1413" arabic-form="isolated" 
d="M1280 795h60v-4l-399 -293l220 -96q107 -46 157 -98.5t50 -120.5q0 -87 -66.5 -135t-186.5 -48h-211h-1h-2q-207 0 -207 223q0 61 17 158q1 5 4.5 21t5.5 26q-64 -3 -125 -17q-95 -23 -152 -65.5t-57 -95.5q0 -27 18 -48.5t71 -58.5l52 -36q56 -39 80 -70.5t24 -68.5
q0 -86 -79 -134.5t-225 -48.5q-120 0 -196.5 67t-76.5 187q0 114 45 246h35q-45 -122 -45 -232q0 -108 66.5 -168t189.5 -60q107 0 178 36.5t71 102.5q0 28 -20.5 51.5t-76.5 62.5l-48 32q-58 40 -79.5 69t-21.5 68q0 83 95.5 144.5t283.5 78.5l32 -28q-30 -134 -30 -221
q0 -93 41.5 -137t129.5 -44h3h217q93 0 151 38t58 105q0 54 -45 98t-145 87l-244 107v37z" />
    <glyph glyph-name="uniFC3E" unicode="&#xfc3e;" horiz-adv-x="1413" arabic-form="isolated" 
d="M1280 795h60v-4l-399 -293l220 -96q107 -46 157 -98.5t50 -120.5q0 -87 -66.5 -135t-186.5 -48h-211h-1h-2q-207 0 -207 223q0 61 17 158q1 5 4.5 21t5.5 26q-64 -3 -125 -17q-95 -23 -152 -65.5t-57 -95.5q0 -27 18 -48.5t71 -58.5l52 -36q56 -39 80 -70.5t24 -68.5
q0 -86 -79 -134.5t-225 -48.5q-120 0 -196.5 67t-76.5 187q0 114 45 246h35q-45 -122 -45 -232q0 -108 66.5 -168t189.5 -60q107 0 178 36.5t71 102.5q0 28 -20.5 51.5t-76.5 62.5l-48 32q-58 40 -79.5 69t-21.5 68q0 83 95.5 144.5t283.5 78.5l32 -28q-30 -134 -30 -221
q0 -93 41.5 -137t129.5 -44h3h217q93 0 151 38t58 105q0 54 -45 98t-145 87l-244 107v37zM414 -338l43 42l42 -42l-42 -42zM266 -338l42 42l42 -42l-42 -42z" />
    <glyph glyph-name="uniFC42" unicode="&#xfc42;" horiz-adv-x="468" arabic-form="isolated" 
d="M323 725h37l-2 -613l45 -18q31 -13 69 -35l-16 -33q-67 20 -123 53l-27 9q-64 20 -119 20t-80 -27t-25 -90q0 -61 36 -266h-37q-36 199 -36 281q0 142 141 142q44 0 81 -10q35 -8 58 -16l-2 17q-2 30 -2 49z" />
    <glyph glyph-name="uniFC44" unicode="&#xfc44;" horiz-adv-x="876" arabic-form="isolated" 
d="M743 725h37v-534q0 -94 -46 -143q-28 -31 -80 -42q-52 -106 -133 -163q-82 -58 -213 -58q-122 0 -187.5 65t-65.5 189q0 114 45 246h35q-45 -122 -45 -232q0 -228 227 -228q204 0 295 175h-22h-149l8 40h141q153 0 153 148v537zM392 -329l43 42l42 -42l-42 -42zM244 -329
l42 42l42 -42l-42 -42z" />
    <glyph glyph-name="uniFC4E" unicode="&#xfc4e;" horiz-adv-x="518" arabic-form="isolated" 
d="M413 532h8l22 -24q-137 -107 -137 -232q0 -58 21 -104q16 -34 40 -63l36 -15q31 -13 69 -35l-16 -33q-64 20 -119 51l-31 11q-64 20 -119 20t-80 -27t-25 -90q0 -61 36 -266h-37q-36 199 -36 281q0 142 141 142q44 0 81 -10q28 -7 46 -13q-17 31 -26 55q-18 49 -18 97
q0 150 144 255zM370 664l42 42l43 -42l-42 -42z" />
    <glyph glyph-name="uniFC4F" unicode="&#xfc4f;" horiz-adv-x="859" arabic-form="isolated" 
d="M723 485h37q34 -221 34 -294q0 -94 -46 -143q-34 -34 -96 -45q-42 -103 -117 -159q-80 -59 -205 -59q-275 0 -275 254q0 114 45 246h35q-45 -122 -45 -232q0 -116 60 -172t187 -56q105 0 179 51q64 43 96 124h-9h-162l8 40h154q156 0 156 148q0 48 -36 297zM694 634
l42 42l43 -42l-42 -42z" />
    <glyph glyph-name="uniFC50" unicode="&#xfc50;" horiz-adv-x="859" arabic-form="isolated" 
d="M723 485h37q34 -221 34 -294q0 -94 -46 -143q-34 -34 -96 -45q-42 -103 -117 -159q-80 -59 -205 -59q-275 0 -275 254q0 114 45 246h35q-45 -122 -45 -232q0 -116 60 -172t187 -56q105 0 179 51q64 43 96 124h-9h-162l8 40h154q156 0 156 148q0 48 -36 297zM694 634
l42 42l43 -42l-42 -42zM425 -338l43 42l42 -42l-42 -42zM277 -338l42 42l42 -42l-42 -42z" />
    <glyph glyph-name="uniFC58" unicode="&#xfc58;" horiz-adv-x="518" arabic-form="isolated" 
d="M413 532h8l22 -24q-137 -107 -137 -232q0 -58 21 -104q16 -34 40 -63l36 -15q31 -13 69 -35l-16 -33q-64 20 -119 51l-31 11q-64 20 -119 20t-80 -27t-25 -90q0 -61 36 -266h-37q-36 199 -36 281q0 142 141 142q44 0 81 -10q28 -7 46 -13q-17 31 -26 55q-18 49 -18 97
q0 150 144 255zM341 -158l43 42l42 -42l-42 -42zM193 -158l42 42l42 -42l-42 -42z" />
    <glyph glyph-name="uniFC64" unicode="&#xfc64;" horiz-adv-x="605" arabic-form="final" 
d="M457 459l38 -22q-24 -104 -24 -209t32 -146.5t101 -41.5q10 0 10 -9v-22q0 -9 -10 -9q-169 0 -169 220q0 48 6 102q5 50 15 96q-61 -32 -135 -56q-71 -22 -135 -30q10 -84 18 -161q7 -74 7 -142q0 -244 -237 -244v38q96 0 148.5 51.5t52.5 155.5q0 123 -28 328l10 12
q88 8 154.5 28t145.5 61zM451 621h86l-11 -35h-125q-42 0 -89 -14v32l26 8q21 8 37 8q7 0 10 1q-31 22 -31 60q0 35 24 59t61 24q33 0 71 -18v-31q-42 14 -64 14q-27 0 -43.5 -14t-16.5 -39q0 -22 20 -39q18 -15 45 -16z" />
    <glyph glyph-name="uniFC65" unicode="&#xfc65;" horiz-adv-x="605" arabic-form="final" 
d="M457 459l38 -22q-24 -104 -24 -209t32 -146.5t101 -41.5q10 0 10 -9v-22q0 -9 -10 -9q-169 0 -169 220q0 48 6 102q5 50 15 96q-61 -32 -135 -56q-71 -22 -135 -30q10 -84 18 -161q7 -74 7 -142q0 -244 -237 -244v38q96 0 148.5 51.5t52.5 155.5q0 123 -28 328l10 12
q88 8 154.5 28t145.5 61zM106 544l42 42l43 -42l-42 -42zM451 621h86l-11 -35h-125q-42 0 -89 -14v32l26 8q21 8 37 8q7 0 10 1q-31 22 -31 60q0 35 24 59t61 24q33 0 71 -18v-31q-42 14 -64 14q-27 0 -43.5 -14t-16.5 -39q0 -22 20 -39q18 -15 45 -16z" />
    <glyph glyph-name="uniFC67" unicode="&#xfc67;" horiz-adv-x="948" arabic-form="final" 
d="M800 459l38 -22q-25 -108 -25 -209q0 -105 32 -146.5t102 -41.5q10 0 10 -9v-22q0 -9 -10 -9q-89 0 -129 56t-40 164q0 48 6 102q4 43 14 95q-63 -32 -135 -55q-71 -23 -133 -30q11 -86 13 -116q5 -67 5 -117q0 -314 -258 -314q-111 0 -173 66.5t-62 187.5q0 114 45 246
h35q-45 -122 -45 -232q0 -113 53 -170.5t155 -57.5q108 0 161 66.5t53 207.5q0 94 -23 259l10 12q156 14 301 89zM782 623h86l-11 -35h-125q-42 0 -89 -14v32l25 8q24 8 38 8h9q-30 24 -30 61q0 35 24 59t61 24q34 0 71 -18v-31q-42 14 -64 14q-27 0 -43.5 -14t-16.5 -39
q0 -23 19 -39q18 -15 46 -16zM260 470l42 42l43 -42l-42 -42z" />
    <glyph glyph-name="uniFC68" unicode="&#xfc68;" horiz-adv-x="916" arabic-form="final" 
d="M728 470l32 -28q-30 -134 -30 -221q0 -91 48.5 -136t136.5 -45q10 0 10 -9v-22q0 -9 -10 -9q-104 0 -162.5 56t-58.5 167q0 61 17 158q1 5 4.5 21t5.5 26q-64 -3 -125 -17q-95 -23 -152 -65.5t-57 -95.5q0 -27 18 -48.5t71 -58.5l52 -36q56 -39 80 -70.5t24 -68.5
q0 -86 -79 -134.5t-225 -48.5q-120 0 -196.5 67t-76.5 187q0 114 45 246h35q-45 -122 -45 -232q0 -108 66.5 -168t189.5 -60q107 0 178 36.5t71 102.5q0 28 -20.5 51.5t-76.5 62.5l-48 32q-58 40 -79.5 69t-21.5 68q0 83 95.5 144.5t283.5 78.5zM690 632h86l-11 -35h-125
q-42 0 -89 -14v32l26 8q21 8 37 8q7 0 10 1q-31 22 -31 60q0 35 24 59t61 24q34 0 71 -18v-31q-42 14 -64 14q-27 0 -43.5 -14t-16.5 -39q0 -22 20 -39q18 -15 45 -16z" />
    <glyph glyph-name="uniFC69" unicode="&#xfc69;" horiz-adv-x="916" arabic-form="final" 
d="M728 470l32 -28q-30 -134 -30 -221q0 -91 48.5 -136t136.5 -45q10 0 10 -9v-22q0 -9 -10 -9q-104 0 -162.5 56t-58.5 167q0 61 17 158q1 5 4.5 21t5.5 26q-64 -3 -125 -17q-95 -23 -152 -65.5t-57 -95.5q0 -27 18 -48.5t71 -58.5l52 -36q56 -39 80 -70.5t24 -68.5
q0 -86 -79 -134.5t-225 -48.5q-120 0 -196.5 67t-76.5 187q0 114 45 246h35q-45 -122 -45 -232q0 -108 66.5 -168t189.5 -60q107 0 178 36.5t71 102.5q0 28 -20.5 51.5t-76.5 62.5l-48 32q-58 40 -79.5 69t-21.5 68q0 83 95.5 144.5t283.5 78.5zM690 632h86l-11 -35h-125
q-42 0 -89 -14v32l26 8q21 8 37 8q7 0 10 1q-31 22 -31 60q0 35 24 59t61 24q34 0 71 -18v-31q-42 14 -64 14q-27 0 -43.5 -14t-16.5 -39q0 -22 20 -39q18 -15 45 -16zM425 -338l43 42l42 -42l-42 -42zM277 -338l42 42l42 -42l-42 -42z" />
    <glyph glyph-name="uniFC6A" unicode="&#xfc6a;" horiz-adv-x="605" arabic-form="final" 
d="M457 459l38 -22q-24 -104 -24 -209t32 -146.5t101 -41.5q10 0 10 -9v-22q0 -9 -10 -9q-169 0 -169 220q0 48 6 102q5 50 15 96q-61 -32 -135 -56q-71 -22 -135 -30q10 -84 18 -161q7 -74 7 -142q0 -244 -237 -244v38q96 0 148.5 51.5t52.5 155.5q0 123 -28 328l10 12
q88 8 154.5 28t145.5 61zM318 -157l42 42l43 -42l-42 -42z" />
    <glyph glyph-name="uniFC6B" unicode="&#xfc6b;" horiz-adv-x="605" arabic-form="final" 
d="M457 459l38 -22q-24 -104 -24 -209t32 -146.5t101 -41.5q10 0 10 -9v-22q0 -9 -10 -9q-169 0 -169 220q0 48 6 102q5 50 15 96q-61 -32 -135 -56q-71 -22 -135 -30q10 -84 18 -161q7 -74 7 -142q0 -244 -237 -244v38q96 0 148.5 51.5t52.5 155.5q0 123 -28 328l10 12
q88 8 154.5 28t145.5 61zM106 544l42 42l43 -42l-42 -42zM318 -157l42 42l43 -42l-42 -42z" />
    <glyph glyph-name="uniFC6D" unicode="&#xfc6d;" horiz-adv-x="948" arabic-form="final" 
d="M800 459l38 -22q-25 -108 -25 -209q0 -105 32 -146.5t102 -41.5q10 0 10 -9v-22q0 -9 -10 -9q-89 0 -129 56t-40 164q0 48 6 102q4 43 14 95q-63 -32 -135 -55q-71 -23 -133 -30q11 -86 13 -116q5 -67 5 -117q0 -314 -258 -314q-111 0 -173 66.5t-62 187.5q0 114 45 246
h35q-45 -122 -45 -232q0 -113 53 -170.5t155 -57.5q108 0 161 66.5t53 207.5q0 94 -23 259l10 12q156 14 301 89zM646 -158l42 42l43 -42l-42 -42zM260 470l42 42l43 -42l-42 -42z" />
    <glyph glyph-name="uniFC6E" unicode="&#xfc6e;" horiz-adv-x="916" arabic-form="final" 
d="M728 470l32 -28q-30 -134 -30 -221q0 -91 48.5 -136t136.5 -45q10 0 10 -9v-22q0 -9 -10 -9q-104 0 -162.5 56t-58.5 167q0 61 17 158q1 5 4.5 21t5.5 26q-64 -3 -125 -17q-95 -23 -152 -65.5t-57 -95.5q0 -27 18 -48.5t71 -58.5l52 -36q56 -39 80 -70.5t24 -68.5
q0 -86 -79 -134.5t-225 -48.5q-120 0 -196.5 67t-76.5 187q0 114 45 246h35q-45 -122 -45 -232q0 -108 66.5 -168t189.5 -60q107 0 178 36.5t71 102.5q0 28 -20.5 51.5t-76.5 62.5l-48 32q-58 40 -79.5 69t-21.5 68q0 83 95.5 144.5t283.5 78.5zM712 -156l42 42l43 -42
l-42 -42z" />
    <glyph glyph-name="uniFC6F" unicode="&#xfc6f;" horiz-adv-x="916" arabic-form="final" 
d="M728 470l32 -28q-30 -134 -30 -221q0 -91 48.5 -136t136.5 -45q10 0 10 -9v-22q0 -9 -10 -9q-104 0 -162.5 56t-58.5 167q0 61 17 158q1 5 4.5 21t5.5 26q-64 -3 -125 -17q-95 -23 -152 -65.5t-57 -95.5q0 -27 18 -48.5t71 -58.5l52 -36q56 -39 80 -70.5t24 -68.5
q0 -86 -79 -134.5t-225 -48.5q-120 0 -196.5 67t-76.5 187q0 114 45 246h35q-45 -122 -45 -232q0 -108 66.5 -168t189.5 -60q107 0 178 36.5t71 102.5q0 28 -20.5 51.5t-76.5 62.5l-48 32q-58 40 -79.5 69t-21.5 68q0 83 95.5 144.5t283.5 78.5zM712 -156l42 42l43 -42
l-42 -42zM425 -338l43 42l42 -42l-42 -42zM277 -338l42 42l42 -42l-42 -42z" />
    <glyph glyph-name="uniFC70" unicode="&#xfc70;" horiz-adv-x="605" arabic-form="final" 
d="M457 459l38 -22q-24 -104 -24 -209t32 -146.5t101 -41.5q10 0 10 -9v-22q0 -9 -10 -9q-169 0 -169 220q0 48 6 102q5 50 15 96q-61 -32 -135 -56q-71 -22 -135 -30q10 -84 18 -161q7 -74 7 -142q0 -244 -237 -244v38q96 0 148.5 51.5t52.5 155.5q0 123 -28 328l10 12
q88 8 154.5 28t145.5 61zM424 641l43 42l42 -42l-42 -42zM276 641l42 42l42 -42l-42 -42z" />
    <glyph glyph-name="uniFC71" unicode="&#xfc71;" horiz-adv-x="605" arabic-form="final" 
d="M457 459l38 -22q-24 -104 -24 -209t32 -146.5t101 -41.5q10 0 10 -9v-22q0 -9 -10 -9q-169 0 -169 220q0 48 6 102q5 50 15 96q-61 -32 -135 -56q-71 -22 -135 -30q10 -84 18 -161q7 -74 7 -142q0 -244 -237 -244v38q96 0 148.5 51.5t52.5 155.5q0 123 -28 328l10 12
q88 8 154.5 28t145.5 61zM106 544l42 42l43 -42l-42 -42zM474 641l43 42l42 -42l-42 -42zM326 641l42 42l42 -42l-42 -42z" />
    <glyph glyph-name="uniFC73" unicode="&#xfc73;" horiz-adv-x="948" arabic-form="final" 
d="M800 459l38 -22q-25 -108 -25 -209q0 -105 32 -146.5t102 -41.5q10 0 10 -9v-22q0 -9 -10 -9q-89 0 -129 56t-40 164q0 48 6 102q4 43 14 95q-63 -32 -135 -55q-71 -23 -133 -30q11 -86 13 -116q5 -67 5 -117q0 -314 -258 -314q-111 0 -173 66.5t-62 187.5q0 114 45 246
h35q-45 -122 -45 -232q0 -113 53 -170.5t155 -57.5q108 0 161 66.5t53 207.5q0 94 -23 259l10 12q156 14 301 89zM260 470l42 42l43 -42l-42 -42zM773 637l43 42l42 -42l-42 -42zM625 637l42 42l42 -42l-42 -42z" />
    <glyph glyph-name="uniFC74" unicode="&#xfc74;" horiz-adv-x="916" arabic-form="final" 
d="M728 470l32 -28q-30 -134 -30 -221q0 -91 48.5 -136t136.5 -45q10 0 10 -9v-22q0 -9 -10 -9q-104 0 -162.5 56t-58.5 167q0 61 17 158q1 5 4.5 21t5.5 26q-64 -3 -125 -17q-95 -23 -152 -65.5t-57 -95.5q0 -27 18 -48.5t71 -58.5l52 -36q56 -39 80 -70.5t24 -68.5
q0 -86 -79 -134.5t-225 -48.5q-120 0 -196.5 67t-76.5 187q0 114 45 246h35q-45 -122 -45 -232q0 -108 66.5 -168t189.5 -60q107 0 178 36.5t71 102.5q0 28 -20.5 51.5t-76.5 62.5l-48 32q-58 40 -79.5 69t-21.5 68q0 83 95.5 144.5t283.5 78.5zM701 650l43 42l42 -42
l-42 -42zM553 650l42 42l42 -42l-42 -42z" />
    <glyph glyph-name="uniFC75" unicode="&#xfc75;" horiz-adv-x="916" arabic-form="final" 
d="M728 470l32 -28q-30 -134 -30 -221q0 -91 48.5 -136t136.5 -45q10 0 10 -9v-22q0 -9 -10 -9q-104 0 -162.5 56t-58.5 167q0 61 17 158q1 5 4.5 21t5.5 26q-64 -3 -125 -17q-95 -23 -152 -65.5t-57 -95.5q0 -27 18 -48.5t71 -58.5l52 -36q56 -39 80 -70.5t24 -68.5
q0 -86 -79 -134.5t-225 -48.5q-120 0 -196.5 67t-76.5 187q0 114 45 246h35q-45 -122 -45 -232q0 -108 66.5 -168t189.5 -60q107 0 178 36.5t71 102.5q0 28 -20.5 51.5t-76.5 62.5l-48 32q-58 40 -79.5 69t-21.5 68q0 83 95.5 144.5t283.5 78.5zM701 650l43 42l42 -42
l-42 -42zM553 650l42 42l42 -42l-42 -42zM426 -338l43 42l42 -42l-42 -42zM278 -338l42 42l42 -42l-42 -42z" />
    <glyph glyph-name="uniFC76" unicode="&#xfc76;" horiz-adv-x="605" arabic-form="final" 
d="M457 459l38 -22q-24 -104 -24 -209t32 -146.5t101 -41.5q10 0 10 -9v-22q0 -9 -10 -9q-169 0 -169 220q0 48 6 102q5 50 15 96q-61 -32 -135 -56q-71 -22 -135 -30q10 -84 18 -161q7 -74 7 -142q0 -244 -237 -244v38q96 0 148.5 51.5t52.5 155.5q0 123 -28 328l10 12
q88 8 154.5 28t145.5 61zM436 645l43 42l42 -42l-42 -42zM268 645l42 42l42 -42l-42 -42zM360 755l35 36l36 -36l-35 -36z" />
    <glyph glyph-name="uniFC77" unicode="&#xfc77;" horiz-adv-x="605" arabic-form="final" 
d="M457 459l38 -22q-24 -104 -24 -209t32 -146.5t101 -41.5q10 0 10 -9v-22q0 -9 -10 -9q-169 0 -169 220q0 48 6 102q5 50 15 96q-61 -32 -135 -56q-71 -22 -135 -30q10 -84 18 -161q7 -74 7 -142q0 -244 -237 -244v38q96 0 148.5 51.5t52.5 155.5q0 123 -28 328l10 12
q88 8 154.5 28t145.5 61zM106 544l42 42l43 -42l-42 -42zM474 645l43 42l42 -42l-42 -42zM306 645l42 42l42 -42l-42 -42zM398 755l35 36l36 -36l-35 -36z" />
    <glyph glyph-name="uniFC79" unicode="&#xfc79;" horiz-adv-x="948" arabic-form="final" 
d="M800 459l38 -22q-25 -108 -25 -209q0 -105 32 -146.5t102 -41.5q10 0 10 -9v-22q0 -9 -10 -9q-89 0 -129 56t-40 164q0 48 6 102q4 43 14 95q-63 -32 -135 -55q-71 -23 -133 -30q11 -86 13 -116q5 -67 5 -117q0 -314 -258 -314q-111 0 -173 66.5t-62 187.5q0 114 45 246
h35q-45 -122 -45 -232q0 -113 53 -170.5t155 -57.5q108 0 161 66.5t53 207.5q0 94 -23 259l10 12q156 14 301 89zM260 470l42 42l43 -42l-42 -42zM774 632l43 42l42 -42l-42 -42zM606 632l42 42l42 -42l-42 -42zM698 742l35 36l36 -36l-35 -36z" />
    <glyph glyph-name="uniFC7A" unicode="&#xfc7a;" horiz-adv-x="916" arabic-form="final" 
d="M728 470l32 -28q-30 -134 -30 -221q0 -91 48.5 -136t136.5 -45q10 0 10 -9v-22q0 -9 -10 -9q-104 0 -162.5 56t-58.5 167q0 61 17 158q1 5 4.5 21t5.5 26q-64 -3 -125 -17q-95 -23 -152 -65.5t-57 -95.5q0 -27 18 -48.5t71 -58.5l52 -36q56 -39 80 -70.5t24 -68.5
q0 -86 -79 -134.5t-225 -48.5q-120 0 -196.5 67t-76.5 187q0 114 45 246h35q-45 -122 -45 -232q0 -108 66.5 -168t189.5 -60q107 0 178 36.5t71 102.5q0 28 -20.5 51.5t-76.5 62.5l-48 32q-58 40 -79.5 69t-21.5 68q0 83 95.5 144.5t283.5 78.5zM697 610l43 42l42 -42
l-42 -42zM529 610l42 42l42 -42l-42 -42zM621 720l35 36l36 -36l-35 -36z" />
    <glyph glyph-name="uniFC7B" unicode="&#xfc7b;" horiz-adv-x="916" arabic-form="final" 
d="M728 470l32 -28q-30 -134 -30 -221q0 -91 48.5 -136t136.5 -45q10 0 10 -9v-22q0 -9 -10 -9q-104 0 -162.5 56t-58.5 167q0 61 17 158q1 5 4.5 21t5.5 26q-64 -3 -125 -17q-95 -23 -152 -65.5t-57 -95.5q0 -27 18 -48.5t71 -58.5l52 -36q56 -39 80 -70.5t24 -68.5
q0 -86 -79 -134.5t-225 -48.5q-120 0 -196.5 67t-76.5 187q0 114 45 246h35q-45 -122 -45 -232q0 -108 66.5 -168t189.5 -60q107 0 178 36.5t71 102.5q0 28 -20.5 51.5t-76.5 62.5l-48 32q-58 40 -79.5 69t-21.5 68q0 83 95.5 144.5t283.5 78.5zM697 610l43 42l42 -42
l-42 -42zM529 610l42 42l42 -42l-42 -42zM621 720l35 36l36 -36l-35 -36zM425 -338l43 42l42 -42l-42 -42zM277 -338l42 42l42 -42l-42 -42z" />
    <glyph glyph-name="uniFC83" unicode="&#xfc83;" horiz-adv-x="1498" arabic-form="final" 
d="M1280 795h60v-4l-399 -293l220 -96q107 -46 157 -98.5t50 -120.5q0 -87 -66.5 -135t-186.5 -48h-211h-1h-2q-207 0 -207 223q0 61 17 158q1 5 4.5 21t5.5 26q-64 -3 -125 -17q-95 -23 -152 -65.5t-57 -95.5q0 -27 18 -48.5t71 -58.5l52 -36q56 -39 80 -70.5t24 -68.5
q0 -86 -79 -134.5t-225 -48.5q-120 0 -196.5 67t-76.5 187q0 114 45 246h35q-45 -122 -45 -232q0 -108 66.5 -168t189.5 -60q107 0 178 36.5t71 102.5q0 28 -20.5 51.5t-76.5 62.5l-48 32q-58 40 -79.5 69t-21.5 68q0 83 95.5 144.5t283.5 78.5l32 -28q-30 -134 -30 -221
q0 -93 41.5 -137t129.5 -44h3h217q93 0 151 38t58 105q0 54 -45 98t-145 87l-244 107v37zM1307 86l24 24q43 -37 81 -53.5t86 -16.5q10 0 10 -9v-22q0 -9 -10 -9q-108 0 -191 86z" />
    <glyph glyph-name="uniFC84" unicode="&#xfc84;" horiz-adv-x="1498" arabic-form="final" 
d="M1280 795h60v-4l-399 -293l220 -96q107 -46 157 -98.5t50 -120.5q0 -87 -66.5 -135t-186.5 -48h-211h-1h-2q-207 0 -207 223q0 61 17 158q1 5 4.5 21t5.5 26q-64 -3 -125 -17q-95 -23 -152 -65.5t-57 -95.5q0 -27 18 -48.5t71 -58.5l52 -36q56 -39 80 -70.5t24 -68.5
q0 -86 -79 -134.5t-225 -48.5q-120 0 -196.5 67t-76.5 187q0 114 45 246h35q-45 -122 -45 -232q0 -108 66.5 -168t189.5 -60q107 0 178 36.5t71 102.5q0 28 -20.5 51.5t-76.5 62.5l-48 32q-58 40 -79.5 69t-21.5 68q0 83 95.5 144.5t283.5 78.5l32 -28q-30 -134 -30 -221
q0 -93 41.5 -137t129.5 -44h3h217q93 0 151 38t58 105q0 54 -45 98t-145 87l-244 107v37zM1307 86l24 24q43 -37 81 -53.5t86 -16.5q10 0 10 -9v-22q0 -9 -10 -9q-108 0 -191 86zM414 -338l43 42l42 -42l-42 -42zM266 -338l42 42l42 -42l-42 -42z" />
    <glyph glyph-name="uniFC87" unicode="&#xfc87;" horiz-adv-x="912" arabic-form="final" 
d="M721 725h37v-537q0 -148 154 -148q10 0 10 -9v-22q0 -9 -10 -9q-98 0 -145 48l-15 18q-37 -32 -67 -47q-10 -6 -30 -11q-52 -109 -134 -165q-82 -58 -213 -58q-122 0 -187.5 65t-65.5 189q0 114 45 246h35q-45 -122 -45 -232q0 -228 227 -228q204 0 295 175h-22h-149
l8 40h141q82 0 146 56q-15 40 -15 95v534zM393 -329l43 42l42 -42l-42 -42zM245 -329l42 42l42 -42l-42 -42z" />
    <glyph glyph-name="uniFC8A" unicode="&#xfc8a;" horiz-adv-x="605" arabic-form="final" 
d="M457 459l38 -22q-24 -104 -24 -209t32 -146.5t101 -41.5q10 0 10 -9v-22q0 -9 -10 -9q-169 0 -169 220q0 48 6 102q5 50 15 96q-61 -32 -135 -56q-71 -22 -135 -30q10 -84 18 -161q7 -74 7 -142q0 -244 -237 -244v38q96 0 148.5 51.5t52.5 155.5q0 123 -28 328l10 12
q88 8 154.5 28t145.5 61zM419 640l42 42l43 -42l-42 -42z" />
    <glyph glyph-name="uniFC8B" unicode="&#xfc8b;" horiz-adv-x="605" arabic-form="final" 
d="M457 459l38 -22q-24 -104 -24 -209t32 -146.5t101 -41.5q10 0 10 -9v-22q0 -9 -10 -9q-169 0 -169 220q0 48 6 102q5 50 15 96q-61 -32 -135 -56q-71 -22 -135 -30q10 -84 18 -161q7 -74 7 -142q0 -244 -237 -244v38q96 0 148.5 51.5t52.5 155.5q0 123 -28 328l10 12
q88 8 154.5 28t145.5 61zM106 544l42 42l43 -42l-42 -42zM413 640l42 42l43 -42l-42 -42z" />
    <glyph glyph-name="uniFC8D" unicode="&#xfc8d;" horiz-adv-x="948" arabic-form="final" 
d="M800 459l38 -22q-25 -108 -25 -209q0 -105 32 -146.5t102 -41.5q10 0 10 -9v-22q0 -9 -10 -9q-89 0 -129 56t-40 164q0 48 6 102q4 43 14 95q-63 -32 -135 -55q-71 -23 -133 -30q11 -86 13 -116q5 -67 5 -117q0 -314 -258 -314q-111 0 -173 66.5t-62 187.5q0 114 45 246
h35q-45 -122 -45 -232q0 -113 53 -170.5t155 -57.5q108 0 161 66.5t53 207.5q0 94 -23 259l10 12q156 14 301 89zM760 641l42 42l43 -42l-42 -42zM260 470l42 42l43 -42l-42 -42z" />
    <glyph glyph-name="uniFC8E" unicode="&#xfc8e;" horiz-adv-x="916" arabic-form="final" 
d="M728 470l32 -28q-30 -134 -30 -221q0 -91 48.5 -136t136.5 -45q10 0 10 -9v-22q0 -9 -10 -9q-104 0 -162.5 56t-58.5 167q0 61 17 158q1 5 4.5 21t5.5 26q-64 -3 -125 -17q-95 -23 -152 -65.5t-57 -95.5q0 -27 18 -48.5t71 -58.5l52 -36q56 -39 80 -70.5t24 -68.5
q0 -86 -79 -134.5t-225 -48.5q-120 0 -196.5 67t-76.5 187q0 114 45 246h35q-45 -122 -45 -232q0 -108 66.5 -168t189.5 -60q107 0 178 36.5t71 102.5q0 28 -20.5 51.5t-76.5 62.5l-48 32q-58 40 -79.5 69t-21.5 68q0 83 95.5 144.5t283.5 78.5zM680 649l42 42l43 -42
l-42 -42z" />
    <glyph glyph-name="uniFC8F" unicode="&#xfc8f;" horiz-adv-x="916" arabic-form="final" 
d="M728 470l32 -28q-30 -134 -30 -221q0 -91 48.5 -136t136.5 -45q10 0 10 -9v-22q0 -9 -10 -9q-104 0 -162.5 56t-58.5 167q0 61 17 158q1 5 4.5 21t5.5 26q-64 -3 -125 -17q-95 -23 -152 -65.5t-57 -95.5q0 -27 18 -48.5t71 -58.5l52 -36q56 -39 80 -70.5t24 -68.5
q0 -86 -79 -134.5t-225 -48.5q-120 0 -196.5 67t-76.5 187q0 114 45 246h35q-45 -122 -45 -232q0 -108 66.5 -168t189.5 -60q107 0 178 36.5t71 102.5q0 28 -20.5 51.5t-76.5 62.5l-48 32q-58 40 -79.5 69t-21.5 68q0 83 95.5 144.5t283.5 78.5zM680 649l42 42l43 -42
l-42 -42zM425 -338l43 42l42 -42l-42 -42zM277 -338l42 42l42 -42l-42 -42z" />
    <glyph glyph-name="uniFC91" unicode="&#xfc91;" horiz-adv-x="605" arabic-form="final" 
d="M457 459l38 -22q-24 -104 -24 -209t32 -146.5t101 -41.5q10 0 10 -9v-22q0 -9 -10 -9q-169 0 -169 220q0 48 6 102q5 50 15 96q-61 -32 -135 -56q-71 -22 -135 -30q10 -84 18 -161q7 -74 7 -142q0 -244 -237 -244v38q96 0 148.5 51.5t52.5 155.5q0 123 -28 328l10 12
q88 8 154.5 28t145.5 61zM411 -157l43 42l42 -42l-42 -42zM263 -157l42 42l42 -42l-42 -42z" />
    <glyph glyph-name="uniFC92" unicode="&#xfc92;" horiz-adv-x="605" arabic-form="final" 
d="M457 459l38 -22q-24 -104 -24 -209t32 -146.5t101 -41.5q10 0 10 -9v-22q0 -9 -10 -9q-169 0 -169 220q0 48 6 102q5 50 15 96q-61 -32 -135 -56q-71 -22 -135 -30q10 -84 18 -161q7 -74 7 -142q0 -244 -237 -244v38q96 0 148.5 51.5t52.5 155.5q0 123 -28 328l10 12
q88 8 154.5 28t145.5 61zM106 544l42 42l43 -42l-42 -42zM411 -157l43 42l42 -42l-42 -42zM263 -157l42 42l42 -42l-42 -42z" />
    <glyph glyph-name="uniFC94" unicode="&#xfc94;" horiz-adv-x="948" arabic-form="final" 
d="M800 459l38 -22q-25 -108 -25 -209q0 -105 32 -146.5t102 -41.5q10 0 10 -9v-22q0 -9 -10 -9q-89 0 -129 56t-40 164q0 48 6 102q4 43 14 95q-63 -32 -135 -55q-71 -23 -133 -30q11 -86 13 -116q5 -67 5 -117q0 -314 -258 -314q-111 0 -173 66.5t-62 187.5q0 114 45 246
h35q-45 -122 -45 -232q0 -113 53 -170.5t155 -57.5q108 0 161 66.5t53 207.5q0 94 -23 259l10 12q156 14 301 89zM260 470l42 42l43 -42l-42 -42zM748 -157l43 42l42 -42l-42 -42zM600 -157l42 42l42 -42l-42 -42z" />
    <glyph glyph-name="uniFCCC" unicode="&#xfccc;" horiz-adv-x="260" arabic-form="initial" 
d="M0 40q60 0 117 -12l-2 18q-2 30 -2 49v630h37v-705l45 -18q31 -13 69 -35l-16 -33q-63 20 -118 50q-13 4 -23 5q-56 11 -107 11q-10 0 -10 9v22q0 9 10 9z" />
    <glyph glyph-name="uniFCFB" unicode="&#xfcfb;" horiz-adv-x="1465" arabic-form="isolated" 
d="M1328 485h37q34 -221 34 -294q0 -191 -186 -191q-43 0 -91 14q-40 13 -90 41q-18 -19 -45 -33q-43 -22 -92 -22q-201 0 -201 223q0 61 17 158q1 5 4.5 21t5.5 26q-64 -3 -125 -17q-95 -23 -152 -65.5t-57 -95.5q0 -27 18 -48.5t71 -58.5l52 -36q56 -39 80 -70.5t24 -68.5
q0 -86 -79 -134.5t-225 -48.5q-120 0 -196.5 67t-76.5 187q0 114 45 246h35q-45 -122 -45 -232q0 -108 66.5 -168t189.5 -60q107 0 178 36.5t71 102.5q0 28 -20.5 51.5t-76.5 62.5l-48 32q-58 40 -79.5 69t-21.5 68q0 83 95.5 144.5t283.5 78.5l32 -28q-30 -134 -30 -221
q0 -181 163 -181q96 0 131 66q20 35 27 93t7 171h35q0 -212 -41 -287q39 -19 77 -31q42 -12 80 -12q155 0 155 148q0 48 -36 297z" />
    <glyph glyph-name="uniFCFC" unicode="&#xfcfc;" horiz-adv-x="1465" arabic-form="isolated" 
d="M1328 485h37q34 -221 34 -294q0 -191 -186 -191q-43 0 -91 14q-40 13 -90 41q-18 -19 -45 -33q-43 -22 -92 -22q-201 0 -201 223q0 61 17 158q1 5 4.5 21t5.5 26q-64 -3 -125 -17q-95 -23 -152 -65.5t-57 -95.5q0 -27 18 -48.5t71 -58.5l52 -36q56 -39 80 -70.5t24 -68.5
q0 -86 -79 -134.5t-225 -48.5q-120 0 -196.5 67t-76.5 187q0 114 45 246h35q-45 -122 -45 -232q0 -108 66.5 -168t189.5 -60q107 0 178 36.5t71 102.5q0 28 -20.5 51.5t-76.5 62.5l-48 32q-58 40 -79.5 69t-21.5 68q0 83 95.5 144.5t283.5 78.5l32 -28q-30 -134 -30 -221
q0 -181 163 -181q96 0 131 66q20 35 27 93t7 171h35q0 -212 -41 -287q39 -19 77 -31q42 -12 80 -12q155 0 155 148q0 48 -36 297zM425 -338l43 42l42 -42l-42 -42zM277 -338l42 42l42 -42l-42 -42z" />
    <glyph glyph-name="uniFCFD" unicode="&#xfcfd;" horiz-adv-x="1465" arabic-form="isolated" 
d="M1328 485h37q34 -221 34 -294q0 -191 -186 -191q-43 0 -91 14q-40 13 -90 41q-18 -19 -45 -33q-43 -22 -92 -22q-201 0 -201 223q0 61 17 158q1 5 4.5 21t5.5 26q-64 -3 -125 -17q-95 -23 -152 -65.5t-57 -95.5q0 -27 18 -48.5t71 -58.5l52 -36q56 -39 80 -70.5t24 -68.5
q0 -86 -79 -134.5t-225 -48.5q-120 0 -196.5 67t-76.5 187q0 114 45 246h35q-45 -122 -45 -232q0 -108 66.5 -168t189.5 -60q107 0 178 36.5t71 102.5q0 28 -20.5 51.5t-76.5 62.5l-48 32q-58 40 -79.5 69t-21.5 68q0 83 95.5 144.5t283.5 78.5l32 -28q-30 -134 -30 -221
q0 -181 163 -181q96 0 131 66q20 35 27 93t7 171h35q0 -212 -41 -287q39 -19 77 -31q42 -12 80 -12q155 0 155 148q0 48 -36 297zM1119 534l43 42l42 -42l-42 -42zM951 534l42 42l42 -42l-42 -42zM1043 644l35 36l36 -36l-35 -36z" />
    <glyph glyph-name="uniFCFE" unicode="&#xfcfe;" horiz-adv-x="1465" arabic-form="isolated" 
d="M1328 485h37q34 -221 34 -294q0 -191 -186 -191q-43 0 -91 14q-40 13 -90 41q-18 -19 -45 -33q-43 -22 -92 -22q-201 0 -201 223q0 61 17 158q1 5 4.5 21t5.5 26q-64 -3 -125 -17q-95 -23 -152 -65.5t-57 -95.5q0 -27 18 -48.5t71 -58.5l52 -36q56 -39 80 -70.5t24 -68.5
q0 -86 -79 -134.5t-225 -48.5q-120 0 -196.5 67t-76.5 187q0 114 45 246h35q-45 -122 -45 -232q0 -108 66.5 -168t189.5 -60q107 0 178 36.5t71 102.5q0 28 -20.5 51.5t-76.5 62.5l-48 32q-58 40 -79.5 69t-21.5 68q0 83 95.5 144.5t283.5 78.5l32 -28q-30 -134 -30 -221
q0 -181 163 -181q96 0 131 66q20 35 27 93t7 171h35q0 -212 -41 -287q39 -19 77 -31q42 -12 80 -12q155 0 155 148q0 48 -36 297zM425 -338l43 42l42 -42l-42 -42zM277 -338l42 42l42 -42l-42 -42zM1116 534l43 42l42 -42l-42 -42zM948 534l42 42l42 -42l-42 -42zM1040 644
l35 36l36 -36l-35 -36z" />
    <glyph glyph-name="uniFD05" unicode="&#xfd05;" horiz-adv-x="1524" arabic-form="isolated" 
d="M1260 485q88 0 147 -58t59 -145q0 -132 -103 -207t-283 -75h-178q-208 0 -208 223q0 61 17 158q1 5 4.5 21t5.5 26q-64 -3 -125 -17q-95 -23 -152 -65.5t-57 -95.5q0 -27 18 -48.5t71 -58.5l52 -36q56 -39 80 -70.5t24 -68.5q0 -86 -79 -134.5t-225 -48.5
q-120 0 -196.5 67t-76.5 187q0 114 45 246h35q-45 -122 -45 -232q0 -108 66.5 -168t189.5 -60q107 0 178 36.5t71 102.5q0 28 -20.5 51.5t-76.5 62.5l-48 32q-58 40 -79.5 69t-21.5 68q0 83 95.5 144.5t283.5 78.5l32 -28q-30 -136 -30 -221q0 -94 40 -137q6 -8 12 -12
q96 116 172 200q109 121 177 167t129 46zM893 40h175q168 0 264 61.5t96 171.5q0 76 -49 124t-124 48q-54 0 -120 -48t-171 -165q-86 -98 -151 -179q32 -13 80 -13z" />
    <glyph glyph-name="uniFD06" unicode="&#xfd06;" horiz-adv-x="1524" arabic-form="isolated" 
d="M1260 485q88 0 147 -58t59 -145q0 -132 -103 -207t-283 -75h-178q-208 0 -208 223q0 61 17 158q1 5 4.5 21t5.5 26q-64 -3 -125 -17q-95 -23 -152 -65.5t-57 -95.5q0 -27 18 -48.5t71 -58.5l52 -36q56 -39 80 -70.5t24 -68.5q0 -86 -79 -134.5t-225 -48.5
q-120 0 -196.5 67t-76.5 187q0 114 45 246h35q-45 -122 -45 -232q0 -108 66.5 -168t189.5 -60q107 0 178 36.5t71 102.5q0 28 -20.5 51.5t-76.5 62.5l-48 32q-58 40 -79.5 69t-21.5 68q0 83 95.5 144.5t283.5 78.5l32 -28q-30 -136 -30 -221q0 -94 40 -137q6 -8 12 -12
q96 116 172 200q109 121 177 167t129 46zM893 40h175q168 0 264 61.5t96 171.5q0 76 -49 124t-124 48q-54 0 -120 -48t-171 -165q-86 -98 -151 -179q32 -13 80 -13zM425 -338l43 42l42 -42l-42 -42zM277 -338l42 42l42 -42l-42 -42z" />
    <glyph glyph-name="uniFD07" unicode="&#xfd07;" horiz-adv-x="1524" arabic-form="isolated" 
d="M1260 485q88 0 147 -58t59 -145q0 -132 -103 -207t-283 -75h-178q-208 0 -208 223q0 61 17 158q1 5 4.5 21t5.5 26q-64 -3 -125 -17q-95 -23 -152 -65.5t-57 -95.5q0 -27 18 -48.5t71 -58.5l52 -36q56 -39 80 -70.5t24 -68.5q0 -86 -79 -134.5t-225 -48.5
q-120 0 -196.5 67t-76.5 187q0 114 45 246h35q-45 -122 -45 -232q0 -108 66.5 -168t189.5 -60q107 0 178 36.5t71 102.5q0 28 -20.5 51.5t-76.5 62.5l-48 32q-58 40 -79.5 69t-21.5 68q0 83 95.5 144.5t283.5 78.5l32 -28q-30 -136 -30 -221q0 -94 40 -137q6 -8 12 -12
q96 116 172 200q109 121 177 167t129 46zM893 40h175q168 0 264 61.5t96 171.5q0 76 -49 124t-124 48q-54 0 -120 -48t-171 -165q-86 -98 -151 -179q32 -13 80 -13zM980 638l42 42l43 -42l-42 -42z" />
    <glyph glyph-name="uniFD08" unicode="&#xfd08;" horiz-adv-x="1524" arabic-form="isolated" 
d="M1260 485q88 0 147 -58t59 -145q0 -132 -103 -207t-283 -75h-178q-208 0 -208 223q0 61 17 158q1 5 4.5 21t5.5 26q-64 -3 -125 -17q-95 -23 -152 -65.5t-57 -95.5q0 -27 18 -48.5t71 -58.5l52 -36q56 -39 80 -70.5t24 -68.5q0 -86 -79 -134.5t-225 -48.5
q-120 0 -196.5 67t-76.5 187q0 114 45 246h35q-45 -122 -45 -232q0 -108 66.5 -168t189.5 -60q107 0 178 36.5t71 102.5q0 28 -20.5 51.5t-76.5 62.5l-48 32q-58 40 -79.5 69t-21.5 68q0 83 95.5 144.5t283.5 78.5l32 -28q-30 -136 -30 -221q0 -94 40 -137q6 -8 12 -12
q96 116 172 200q109 121 177 167t129 46zM893 40h175q168 0 264 61.5t96 171.5q0 76 -49 124t-124 48q-54 0 -120 -48t-171 -165q-86 -98 -151 -179q32 -13 80 -13zM425 -338l43 42l42 -42l-42 -42zM277 -338l42 42l42 -42l-42 -42zM980 638l42 42l43 -42l-42 -42z" />
    <glyph glyph-name="uniFD0D" unicode="&#xfd0d;" horiz-adv-x="1202" arabic-form="isolated" 
d="M473 495h35q-39 -174 -39 -274q0 -92 40.5 -136.5t122.5 -44.5q93 0 130 66q19 34 26 92.5t7 171.5h35q0 -212 -41 -287q39 -19 77 -31q42 -12 80 -12q155 0 155 148q0 48 -36 297h38q33 -224 33 -294q0 -191 -186 -191q-43 0 -91 14q-46 15 -90 41l-7 -7
q-51 -48 -125 -48q-103 0 -153 54.5t-50 168.5q0 44 8 110l7 42l-63 -16q-115 -31 -152 -44q-25 -9 -43 -17l9 -73q11 -106 11 -196q0 -244 -237 -244v38q96 0 148.5 51.5t52.5 155.5q0 109 -21 273l30 34q112 37 214 61q47 11 58 13q15 76 17 84zM854 534l43 42l42 -42
l-42 -42zM686 534l42 42l42 -42l-42 -42zM778 644l35 36l36 -36l-35 -36z" />
    <glyph glyph-name="uniFD0E" unicode="&#xfd0e;" horiz-adv-x="1202" arabic-form="isolated" 
d="M473 495h35q-39 -174 -39 -274q0 -92 40.5 -136.5t122.5 -44.5q93 0 130 66q19 34 26 92.5t7 171.5h35q0 -212 -41 -287q39 -19 77 -31q42 -12 80 -12q155 0 155 148q0 48 -36 297h38q33 -224 33 -294q0 -191 -186 -191q-43 0 -91 14q-46 15 -90 41l-7 -7
q-51 -48 -125 -48q-103 0 -153 54.5t-50 168.5q0 44 8 110l7 42l-63 -16q-115 -31 -152 -44q-25 -9 -43 -17l9 -73q11 -106 11 -196q0 -244 -237 -244v38q96 0 148.5 51.5t52.5 155.5q0 109 -21 273l30 34q112 37 214 61q47 11 58 13q15 76 17 84z" />
    <glyph glyph-name="uniFD0F" unicode="&#xfd0f;" horiz-adv-x="1263" arabic-form="isolated" 
d="M1000 485q88 0 147 -58t59 -145q0 -132 -103.5 -207t-283.5 -75h-178q-207 0 -207 223q0 44 8 110l7 42l-63 -16q-115 -31 -152 -44q-25 -9 -43 -17l9 -73q11 -106 11 -196q0 -244 -237 -244v38q96 0 148.5 51.5t52.5 155.5q0 109 -21 273l30 34q112 37 214 61
q47 11 58 13q15 76 17 84h35q-39 -174 -39 -274q0 -94 40 -137q6 -8 12 -12q96 116 172 200q109 121 177.5 167t129.5 46zM632 40h175q169 0 265 61.5t96 171.5q0 76 -49.5 124t-123.5 48q-55 0 -121.5 -48.5t-169.5 -164.5q-84 -95 -152 -179q32 -13 80 -13z" />
    <glyph glyph-name="uniFD10" unicode="&#xfd10;" horiz-adv-x="1263" arabic-form="isolated" 
d="M1000 485q88 0 147 -58t59 -145q0 -132 -103.5 -207t-283.5 -75h-178q-207 0 -207 223q0 44 8 110l7 42l-63 -16q-115 -31 -152 -44q-25 -9 -43 -17l9 -73q11 -106 11 -196q0 -244 -237 -244v38q96 0 148.5 51.5t52.5 155.5q0 109 -21 273l30 34q112 37 214 61
q47 11 58 13q15 76 17 84h35q-39 -174 -39 -274q0 -94 40 -137q6 -8 12 -12q96 116 172 200q109 121 177.5 167t129.5 46zM632 40h175q169 0 265 61.5t96 171.5q0 76 -49.5 124t-123.5 48q-55 0 -121.5 -48.5t-169.5 -164.5q-84 -95 -152 -179q32 -13 80 -13zM718 627l42 42
l43 -42l-42 -42z" />
    <glyph glyph-name="uniFD17" unicode="&#xfd17;" horiz-adv-x="1513" arabic-form="final" 
d="M1352 440h36v-70q0 -108 -9 -176q-8 -57 -23 -91q39 -33 72 -47q36 -16 87 -16q10 0 10 -9v-22q0 -9 -10 -9q-55 0 -100 19q-37 16 -76 51q-19 -28 -56 -48q-41 -22 -89 -22q-37 0 -85 14q-41 13 -82 36q-15 -15 -39 -28q-41 -22 -89 -22q-205 0 -205 223q0 61 17 158
q1 5 4.5 21t5.5 26q-64 -3 -125 -17q-95 -23 -152 -65.5t-57 -95.5q0 -27 18 -48.5t71 -58.5l52 -36q56 -39 80 -70.5t24 -68.5q0 -86 -79 -134.5t-225 -48.5q-120 0 -196.5 67t-76.5 187q0 114 45 246h35q-45 -122 -45 -232q0 -108 66.5 -168t189.5 -60q107 0 178 36.5
t71 102.5q0 28 -20.5 51.5t-76.5 62.5l-48 32q-58 40 -79.5 69t-21.5 68q0 83 95.5 144.5t283.5 78.5l32 -28q-30 -134 -30 -221q0 -93 40.5 -137t124.5 -44q94 0 129 66q20 35 27 93t7 171h35q0 -212 -41 -287l-3 -5q33 -17 66 -26q43 -12 75 -12q94 0 129 66
q19 34 26 92.5t7 171.5v70z" />
    <glyph glyph-name="uniFD18" unicode="&#xfd18;" horiz-adv-x="1513" arabic-form="final" 
d="M1352 440h36v-70q0 -108 -9 -176q-8 -57 -23 -91q39 -33 72 -47q36 -16 87 -16q10 0 10 -9v-22q0 -9 -10 -9q-55 0 -100 19q-37 16 -76 51q-19 -28 -56 -48q-41 -22 -89 -22q-37 0 -85 14q-41 13 -82 36q-15 -15 -39 -28q-41 -22 -89 -22q-205 0 -205 223q0 61 17 158
q1 5 4.5 21t5.5 26q-64 -3 -125 -17q-95 -23 -152 -65.5t-57 -95.5q0 -27 18 -48.5t71 -58.5l52 -36q56 -39 80 -70.5t24 -68.5q0 -86 -79 -134.5t-225 -48.5q-120 0 -196.5 67t-76.5 187q0 114 45 246h35q-45 -122 -45 -232q0 -108 66.5 -168t189.5 -60q107 0 178 36.5
t71 102.5q0 28 -20.5 51.5t-76.5 62.5l-48 32q-58 40 -79.5 69t-21.5 68q0 83 95.5 144.5t283.5 78.5l32 -28q-30 -134 -30 -221q0 -93 40.5 -137t124.5 -44q94 0 129 66q20 35 27 93t7 171h35q0 -212 -41 -287l-3 -5q33 -17 66 -26q43 -12 75 -12q94 0 129 66
q19 34 26 92.5t7 171.5v70zM425 -339l43 42l42 -42l-42 -42zM277 -339l42 42l42 -42l-42 -42z" />
    <glyph glyph-name="uniFD19" unicode="&#xfd19;" horiz-adv-x="1513" arabic-form="final" 
d="M1352 440h36v-70q0 -108 -9 -176q-8 -57 -23 -91q39 -33 72 -47q36 -16 87 -16q10 0 10 -9v-22q0 -9 -10 -9q-55 0 -100 19q-37 16 -76 51q-19 -28 -56 -48q-41 -22 -89 -22q-37 0 -85 14q-41 13 -82 36q-15 -15 -39 -28q-41 -22 -89 -22q-205 0 -205 223q0 61 17 158
q1 5 4.5 21t5.5 26q-64 -3 -125 -17q-95 -23 -152 -65.5t-57 -95.5q0 -27 18 -48.5t71 -58.5l52 -36q56 -39 80 -70.5t24 -68.5q0 -86 -79 -134.5t-225 -48.5q-120 0 -196.5 67t-76.5 187q0 114 45 246h35q-45 -122 -45 -232q0 -108 66.5 -168t189.5 -60q107 0 178 36.5
t71 102.5q0 28 -20.5 51.5t-76.5 62.5l-48 32q-58 40 -79.5 69t-21.5 68q0 83 95.5 144.5t283.5 78.5l32 -28q-30 -134 -30 -221q0 -93 40.5 -137t124.5 -44q94 0 129 66q20 35 27 93t7 171h35q0 -212 -41 -287l-3 -5q33 -17 66 -26q43 -12 75 -12q94 0 129 66
q19 34 26 92.5t7 171.5v70zM1117 533l43 42l42 -42l-42 -42zM949 533l42 42l42 -42l-42 -42zM1041 643l35 36l36 -36l-35 -36z" />
    <glyph glyph-name="uniFD1A" unicode="&#xfd1a;" horiz-adv-x="1513" arabic-form="final" 
d="M1352 440h36v-70q0 -108 -9 -176q-8 -57 -23 -91q39 -33 72 -47q36 -16 87 -16q10 0 10 -9v-22q0 -9 -10 -9q-55 0 -100 19q-37 16 -76 51q-19 -28 -56 -48q-41 -22 -89 -22q-37 0 -85 14q-41 13 -82 36q-15 -15 -39 -28q-41 -22 -89 -22q-205 0 -205 223q0 61 17 158
q1 5 4.5 21t5.5 26q-64 -3 -125 -17q-95 -23 -152 -65.5t-57 -95.5q0 -27 18 -48.5t71 -58.5l52 -36q56 -39 80 -70.5t24 -68.5q0 -86 -79 -134.5t-225 -48.5q-120 0 -196.5 67t-76.5 187q0 114 45 246h35q-45 -122 -45 -232q0 -108 66.5 -168t189.5 -60q107 0 178 36.5
t71 102.5q0 28 -20.5 51.5t-76.5 62.5l-48 32q-58 40 -79.5 69t-21.5 68q0 83 95.5 144.5t283.5 78.5l32 -28q-30 -134 -30 -221q0 -93 40.5 -137t124.5 -44q94 0 129 66q20 35 27 93t7 171h35q0 -212 -41 -287l-3 -5q33 -17 66 -26q43 -12 75 -12q94 0 129 66
q19 34 26 92.5t7 171.5v70zM425 -339l43 42l42 -42l-42 -42zM1117 533l43 42l42 -42l-42 -42zM949 533l42 42l42 -42l-42 -42zM277 -339l42 42l42 -42l-42 -42zM1041 643l35 36l36 -36l-35 -36z" />
    <glyph glyph-name="uniFD21" unicode="&#xfd21;" horiz-adv-x="1540" arabic-form="final" 
d="M1260 485q88 0 147 -58t59 -145q0 -132 -103 -207t-283 -75h-178q-208 0 -208 223q0 61 17 158q1 5 4.5 21t5.5 26q-64 -3 -125 -17q-95 -23 -152 -65.5t-57 -95.5q0 -27 18 -48.5t71 -58.5l52 -36q56 -39 80 -70.5t24 -68.5q0 -86 -79 -134.5t-225 -48.5
q-120 0 -196.5 67t-76.5 187q0 114 45 246h35q-45 -122 -45 -232q0 -108 66.5 -168t189.5 -60q107 0 178 36.5t71 102.5q0 28 -20.5 51.5t-76.5 62.5l-48 32q-58 40 -79.5 69t-21.5 68q0 83 95.5 144.5t283.5 78.5l32 -28q-30 -136 -30 -221q0 -94 40 -137q6 -8 12 -12
q96 116 172 200q109 121 177 167t129 46zM893 40h175q168 0 264 61.5t96 171.5q0 76 -49 124t-124 48q-54 0 -120 -48t-171 -165q-86 -98 -151 -179q32 -13 80 -13zM1349 86l24 24q43 -37 81 -53.5t86 -16.5q10 0 10 -9v-22q0 -9 -10 -9q-108 0 -191 86z" />
    <glyph glyph-name="uniFD22" unicode="&#xfd22;" horiz-adv-x="1540" arabic-form="final" 
d="M1260 485q88 0 147 -58t59 -145q0 -132 -103 -207t-283 -75h-178q-208 0 -208 223q0 61 17 158q1 5 4.5 21t5.5 26q-64 -3 -125 -17q-95 -23 -152 -65.5t-57 -95.5q0 -27 18 -48.5t71 -58.5l52 -36q56 -39 80 -70.5t24 -68.5q0 -86 -79 -134.5t-225 -48.5
q-120 0 -196.5 67t-76.5 187q0 114 45 246h35q-45 -122 -45 -232q0 -108 66.5 -168t189.5 -60q107 0 178 36.5t71 102.5q0 28 -20.5 51.5t-76.5 62.5l-48 32q-58 40 -79.5 69t-21.5 68q0 83 95.5 144.5t283.5 78.5l32 -28q-30 -136 -30 -221q0 -94 40 -137q6 -8 12 -12
q96 116 172 200q109 121 177 167t129 46zM893 40h175q168 0 264 61.5t96 171.5q0 76 -49 124t-124 48q-54 0 -120 -48t-171 -165q-86 -98 -151 -179q32 -13 80 -13zM1349 86l24 24q43 -37 81 -53.5t86 -16.5q10 0 10 -9v-22q0 -9 -10 -9q-108 0 -191 86zM425 -338l43 42
l42 -42l-42 -42zM277 -338l42 42l42 -42l-42 -42z" />
    <glyph glyph-name="uniFD23" unicode="&#xfd23;" horiz-adv-x="1540" arabic-form="final" 
d="M1260 485q88 0 147 -58t59 -145q0 -132 -103 -207t-283 -75h-178q-208 0 -208 223q0 61 17 158q1 5 4.5 21t5.5 26q-64 -3 -125 -17q-95 -23 -152 -65.5t-57 -95.5q0 -27 18 -48.5t71 -58.5l52 -36q56 -39 80 -70.5t24 -68.5q0 -86 -79 -134.5t-225 -48.5
q-120 0 -196.5 67t-76.5 187q0 114 45 246h35q-45 -122 -45 -232q0 -108 66.5 -168t189.5 -60q107 0 178 36.5t71 102.5q0 28 -20.5 51.5t-76.5 62.5l-48 32q-58 40 -79.5 69t-21.5 68q0 83 95.5 144.5t283.5 78.5l32 -28q-30 -136 -30 -221q0 -94 40 -137q6 -8 12 -12
q96 116 172 200q109 121 177 167t129 46zM893 40h175q168 0 264 61.5t96 171.5q0 76 -49 124t-124 48q-54 0 -120 -48t-171 -165q-86 -98 -151 -179q32 -13 80 -13zM1349 86l24 24q43 -37 81 -53.5t86 -16.5q10 0 10 -9v-22q0 -9 -10 -9q-108 0 -191 86zM980 638l42 42
l43 -42l-42 -42z" />
    <glyph glyph-name="uniFD24" unicode="&#xfd24;" horiz-adv-x="1540" arabic-form="final" 
d="M1260 485q88 0 147 -58t59 -145q0 -132 -103 -207t-283 -75h-178q-208 0 -208 223q0 61 17 158q1 5 4.5 21t5.5 26q-64 -3 -125 -17q-95 -23 -152 -65.5t-57 -95.5q0 -27 18 -48.5t71 -58.5l52 -36q56 -39 80 -70.5t24 -68.5q0 -86 -79 -134.5t-225 -48.5
q-120 0 -196.5 67t-76.5 187q0 114 45 246h35q-45 -122 -45 -232q0 -108 66.5 -168t189.5 -60q107 0 178 36.5t71 102.5q0 28 -20.5 51.5t-76.5 62.5l-48 32q-58 40 -79.5 69t-21.5 68q0 83 95.5 144.5t283.5 78.5l32 -28q-30 -136 -30 -221q0 -94 40 -137q6 -8 12 -12
q96 116 172 200q109 121 177 167t129 46zM893 40h175q168 0 264 61.5t96 171.5q0 76 -49 124t-124 48q-54 0 -120 -48t-171 -165q-86 -98 -151 -179q32 -13 80 -13zM1349 86l24 24q43 -37 81 -53.5t86 -16.5q10 0 10 -9v-22q0 -9 -10 -9q-108 0 -191 86zM425 -338l43 42
l42 -42l-42 -42zM277 -338l42 42l42 -42l-42 -42zM980 638l42 42l43 -42l-42 -42z" />
    <glyph glyph-name="uniFD29" unicode="&#xfd29;" horiz-adv-x="1252" arabic-form="final" 
d="M473 495h35q-39 -174 -39 -274q0 -93 40.5 -137t124.5 -44q93 0 130 66q19 34 26 92.5t7 171.5h35q0 -212 -41 -287q-1 -1 -1 -2q-1 -2 -1 -3q27 -14 66 -26q43 -12 75 -12q94 0 129 66q19 34 26 92.5t7 171.5v70h36v-70q0 -108 -9 -176q-8 -58 -23 -92q37 -31 71 -46
q36 -16 87 -16q10 0 10 -9v-22q0 -9 -10 -9q-55 0 -100 19q-38 17 -75 51q-21 -28 -56 -48q-41 -22 -89 -22q-37 0 -85 14q-43 14 -82 37l-3 -3q-51 -48 -125 -48q-205 0 -205 223q0 44 8 110l7 42l-63 -16q-115 -31 -152 -44q-25 -9 -43 -17l9 -73q11 -106 11 -196
q0 -244 -237 -244v38q96 0 148.5 51.5t52.5 155.5q0 109 -21 273l30 34q112 37 214 61q47 11 58 13q15 76 17 84zM859 533l43 42l42 -42l-42 -42zM691 533l42 42l42 -42l-42 -42zM783 643l35 36l36 -36l-35 -36z" />
    <glyph glyph-name="uniFD2A" unicode="&#xfd2a;" horiz-adv-x="1252" arabic-form="final" 
d="M473 495h35q-39 -174 -39 -274q0 -93 40.5 -137t124.5 -44q93 0 130 66q19 34 26 92.5t7 171.5h35q0 -212 -41 -287q-1 -1 -1 -2q-1 -2 -1 -3q27 -14 66 -26q43 -12 75 -12q94 0 129 66q19 34 26 92.5t7 171.5v70h36v-70q0 -108 -9 -176q-8 -58 -23 -92q37 -31 71 -46
q36 -16 87 -16q10 0 10 -9v-22q0 -9 -10 -9q-55 0 -100 19q-38 17 -75 51q-21 -28 -56 -48q-41 -22 -89 -22q-37 0 -85 14q-43 14 -82 37l-3 -3q-51 -48 -125 -48q-205 0 -205 223q0 44 8 110l7 42l-63 -16q-115 -31 -152 -44q-25 -9 -43 -17l9 -73q11 -106 11 -196
q0 -244 -237 -244v38q96 0 148.5 51.5t52.5 155.5q0 109 -21 273l30 34q112 37 214 61q47 11 58 13q15 76 17 84z" />
    <glyph glyph-name="uniFD2B" unicode="&#xfd2b;" horiz-adv-x="1290" arabic-form="final" 
d="M1000 485q88 0 147 -58t59 -145q0 -132 -103.5 -207t-283.5 -75h-178q-207 0 -207 223q0 44 8 110l7 42l-63 -16q-115 -31 -152 -44q-25 -9 -43 -17l9 -73q11 -106 11 -196q0 -244 -237 -244v38q96 0 148.5 51.5t52.5 155.5q0 109 -21 273l30 34q112 37 214 61
q47 11 58 13q15 76 17 84h35q-39 -174 -39 -274q0 -94 40 -137q6 -8 12 -12q96 116 172 200q109 121 177.5 167t129.5 46zM632 40h175q169 0 265 61.5t96 171.5q0 76 -49.5 124t-123.5 48q-55 0 -121.5 -48.5t-169.5 -164.5q-84 -95 -152 -179q32 -13 80 -13zM1099 86l24 24
q43 -37 81 -53.5t86 -16.5q10 0 10 -9v-22q0 -9 -10 -9q-108 0 -191 86z" />
    <glyph glyph-name="uniFD2C" unicode="&#xfd2c;" horiz-adv-x="1290" arabic-form="final" 
d="M1000 485q88 0 147 -58t59 -145q0 -132 -103.5 -207t-283.5 -75h-178q-207 0 -207 223q0 44 8 110l7 42l-63 -16q-115 -31 -152 -44q-25 -9 -43 -17l9 -73q11 -106 11 -196q0 -244 -237 -244v38q96 0 148.5 51.5t52.5 155.5q0 109 -21 273l30 34q112 37 214 61
q47 11 58 13q15 76 17 84h35q-39 -174 -39 -274q0 -94 40 -137q6 -8 12 -12q96 116 172 200q109 121 177.5 167t129.5 46zM632 40h175q169 0 265 61.5t96 171.5q0 76 -49.5 124t-123.5 48q-55 0 -121.5 -48.5t-169.5 -164.5q-84 -95 -152 -179q32 -13 80 -13zM1099 86l24 24
q43 -37 81 -53.5t86 -16.5q10 0 10 -9v-22q0 -9 -10 -9q-108 0 -191 86zM718 627l42 42l43 -42l-42 -42z" />
    <glyph glyph-name="uniFE82" unicode="&#x622;" horiz-adv-x="285" arabic-form="final" 
d="M95 600h37v-412q0 -148 154 -148q10 0 10 -9v-22q0 -9 -10 -9q-191 0 -191 191v409zM45 752q23 0 60 -18.5t61 -18.5q43 0 77 22l-1 -35q-40 -22 -77 -22q-26 0 -61 18.5t-54 18.5q-38 0 -45 -39h-33q2 31 21.5 52.5t51.5 21.5z" />
    <glyph glyph-name="uniFE84" unicode="&#x623;" horiz-adv-x="285" arabic-form="final" 
d="M95 600h37v-412q0 -148 154 -148q10 0 10 -9v-22q0 -9 -10 -9q-191 0 -191 191v409zM136 687h89l-10 -32h-143q-37 0 -75 -12v30q38 14 75 14h3q-9 6 -17 16q-17 22 -17 47q0 36 24 59.5t61 23.5q26 0 69 -19v-31q-39 15 -61 15q-29 0 -44.5 -14.5t-15.5 -39.5
q0 -24 19 -40q15 -15 43 -17z" />
    <glyph glyph-name="uniFE86" unicode="&#x624;" horiz-adv-x="512" arabic-form="final" 
d="M255 454q78 0 125.5 -53.5t54.5 -146.5q11 -119 11 -213v-1h66q10 0 10 -9v-22q0 -9 -10 -9h-69q-12 -93 -81 -148q-83 -67 -245 -67v38q145 0 219 59q57 45 70 118h-92q-130 0 -195.5 55.5t-63.5 169.5q2 102 55.5 165.5t144.5 63.5zM410 40v4q0 86 -11 205
q-6 77 -46 121t-103 44q-71 0 -114 -52.5t-43 -134.5q-2 -97 53.5 -142t169.5 -45h94zM265 613h86l-11 -35h-125q-42 0 -89 -14v32l26 8q21 8 37 8q7 0 10 1q-31 22 -31 60q0 35 24 59t61 24q33 0 71 -18v-31q-42 14 -64 14q-27 0 -43.5 -14t-16.5 -39q0 -22 20 -39
q18 -15 45 -16z" />
    <glyph glyph-name="uniFE88" unicode="&#x625;" horiz-adv-x="286" arabic-form="final" 
d="M95 725h37v-537q0 -148 154 -148q10 0 10 -9v-22q0 -9 -10 -9q-191 0 -191 191v534zM140 -205h88l-10 -32h-143q-37 0 -75 -12v30q38 14 75 14h3q-9 6 -17 16q-16 20 -16 47q0 35 24 58.5t61 23.5q28 0 69 -18v-31q-39 15 -62 15q-29 0 -44.5 -14.5t-15.5 -39.5
q0 -24 19 -40q17 -16 44 -17z" />
    <glyph glyph-name="uniFE8A" unicode="&#x626;" horiz-adv-x="690" arabic-form="final" 
d="M488 34v37q124 -31 202 -31q10 0 10 -9v-22q0 -9 -10 -9q-26 0 -39 1q-41 -102 -116 -157q-80 -59 -205 -59q-275 0 -275 254q0 114 45 246h35q-45 -122 -45 -232q0 -116 60 -172t187 -56q105 0 179 51q67 47 98 129l-15 3q-42 7 -111 26zM518 257h86l-11 -35h-125
q-42 0 -89 -14v32l26 8q21 8 37 8q7 0 10 1q-31 22 -31 60q0 35 24 59t61 24q34 0 71 -18v-31q-42 14 -64 14q-27 0 -43.5 -14t-16.5 -39q0 -22 20 -39q18 -15 45 -16z" />
    <glyph glyph-name="uniFE8B" unicode="&#x626;" horiz-adv-x="324" arabic-form="initial" 
d="M189 485h37q34 -221 34 -294q0 -191 -190 -191h-70q-10 0 -10 9v22q0 9 10 9h70q155 0 155 148q0 48 -36 297zM221 595h86l-11 -35h-125q-42 0 -89 -14v32l26 8q21 8 37 8q7 0 10 1q-31 22 -31 60q0 35 24 59t61 24q34 0 71 -18v-31q-42 14 -64 14q-27 0 -43.5 -14
t-16.5 -39q0 -22 20 -39q18 -15 45 -16z" />
    <glyph glyph-name="uniFE8C" unicode="&#x626;" horiz-adv-x="369" arabic-form="medial" 
d="M185 370h35q0 -169 -21 -237q-3 -14 -7 -22q83 -71 177 -71q10 0 10 -9v-22q0 -9 -10 -9q-57 0 -108 22q-46 20 -86 57q-25 -36 -66 -57q-44 -22 -109 -22q-10 0 -10 9v22q0 9 10 9q112 0 150 66q21 35 28 91.5t7 172.5zM221 489h86l-11 -35h-125q-42 0 -89 -14v32l26 8
q21 8 37 8q7 0 10 1q-31 22 -31 60q0 35 24 59t61 24q34 0 71 -18v-31q-42 14 -64 14q-27 0 -43.5 -14t-16.5 -39q0 -22 20 -39q18 -15 45 -16z" />
    <glyph glyph-name="uniFE8E" unicode="&#x627;" horiz-adv-x="286" arabic-form="final" 
d="M95 725h37v-537q0 -148 154 -148q10 0 10 -9v-22q0 -9 -10 -9q-191 0 -191 191v534z" />
    <glyph glyph-name="uniFE90" unicode="&#x628;" horiz-adv-x="865" arabic-form="final" 
d="M710 370h35q0 -108 -9 -176q-8 -57 -24 -96q34 -28 66 -42q36 -16 87 -16q10 0 10 -9v-22q0 -9 -10 -9q-55 0 -100 19q-34 15 -71 47l-17 -18q-51 -48 -125 -48h-257q-116 0 -178 53t-62 158q0 86 33 229h35q-31 -141 -31 -221q0 -179 211 -179h246h3h4h2q37 2 66 17
q34 16 53 49q19 34 26 92.5t7 171.5zM388 -147l42 42l43 -42l-42 -42z" />
    <glyph glyph-name="uniFE91" unicode="&#x628;" horiz-adv-x="256" arabic-form="initial" 
d="M119 485h38q34 -221 34 -294q0 -191 -191 -191q-10 0 -10 9v22q0 9 10 9q156 0 156 148q0 58 -37 297zM57 -147l42 42l43 -42l-42 -42z" />
    <glyph glyph-name="uniFE92" unicode="&#x628;" horiz-adv-x="313" arabic-form="medial" 
d="M158 370h35q0 -108 -9 -176q-8 -57 -24 -96q34 -28 66 -42q36 -16 87 -16q10 0 10 -9v-22q0 -9 -10 -9q-55 0 -100 19q-34 15 -71 47l-17 -18q-51 -48 -125 -48q-10 0 -10 9v22q0 9 10 9q38 0 73 17.5t52 48.5q19 34 26 92.5t7 171.5zM109 -149l42 42l43 -42l-42 -42z
" />
    <glyph glyph-name="uniFE94" unicode="&#x629;" horiz-adv-x="547" arabic-form="final" 
d="M384 538h37v-353q0 -79 29 -112t97 -33q10 0 10 -9v-22q0 -9 -10 -9q-88 0 -125 43l-6 6q-45 -25 -84 -36q-40 -13 -85 -13q-86 0 -139 48.5t-53 130.5q0 77 45 139.5t138 100.5q65 27 146 37v82zM269 394q-84 -29 -130.5 -83.5t-46.5 -126.5q0 -66 42.5 -105t114.5 -39
q42 0 76 10q31 9 75 30q-16 39 -16 107v233q-60 -7 -115 -26zM410 666l43 42l42 -42l-42 -42zM262 666l42 42l42 -42l-42 -42z" />
    <glyph glyph-name="uniFE96" unicode="&#x62a;" horiz-adv-x="865" arabic-form="final" 
d="M710 370h35q0 -108 -9 -176q-8 -57 -24 -96q34 -28 66 -42q36 -16 87 -16q10 0 10 -9v-22q0 -9 -10 -9q-55 0 -100 19q-34 15 -71 47l-17 -18q-31 -30 -79 -42q-21 -6 -42 -6h-261q-116 0 -178 53t-62 158q0 86 33 229h35q-31 -141 -31 -221q0 -179 211 -179h246h3
q38 0 73 17.5t52 48.5q19 34 26 92.5t7 171.5zM495 516l43 42l42 -42l-42 -42zM347 516l42 42l42 -42l-42 -42z" />
    <glyph glyph-name="uniFE97" unicode="&#x62a;" horiz-adv-x="355" arabic-form="initial" 
d="M189 485h37q34 -221 34 -294q0 -191 -190 -191h-70q-10 0 -10 9v22q0 9 10 9h70q155 0 155 148q0 48 -36 297zM224 633l43 42l42 -42l-42 -42zM76 633l42 42l42 -42l-42 -42z" />
    <glyph glyph-name="uniFE98" unicode="&#x62a;" horiz-adv-x="369" arabic-form="medial" 
d="M185 370h35q0 -169 -21 -237q-3 -14 -7 -22q83 -71 177 -71q10 0 10 -9v-22q0 -9 -10 -9q-57 0 -108 22q-46 20 -86 57q-25 -36 -66 -57q-44 -22 -109 -22q-10 0 -10 9v22q0 9 10 9q112 0 150 66q21 35 28 91.5t7 172.5zM229 517l43 42l42 -42l-42 -42zM81 517l42 42
l42 -42l-42 -42z" />
    <glyph glyph-name="uniFE9A" unicode="&#x62b;" horiz-adv-x="865" arabic-form="final" 
d="M710 370h35q0 -108 -9 -176q-8 -57 -24 -96q34 -28 66 -42q36 -16 87 -16q10 0 10 -9v-22q0 -9 -10 -9q-55 0 -100 19q-34 15 -71 47l-17 -18q-31 -30 -79 -42q-21 -6 -42 -6h-261q-116 0 -178 53t-62 158q0 86 33 229h35q-31 -141 -31 -221q0 -179 211 -179h246h3
q38 0 73 17.5t52 48.5q19 34 26 92.5t7 171.5zM493 516l43 42l42 -42l-42 -42zM325 516l42 42l42 -42l-42 -42zM417 626l35 36l36 -36l-35 -36z" />
    <glyph glyph-name="uniFE9B" unicode="&#x62b;" horiz-adv-x="366" arabic-form="initial" 
d="M189 485h37q34 -221 34 -294q0 -191 -190 -191h-70q-10 0 -10 9v22q0 9 10 9h70q155 0 155 148q0 48 -36 297zM235 637l43 42l42 -42l-42 -42zM67 637l42 42l42 -42l-42 -42zM159 747l35 36l36 -36l-35 -36z" />
    <glyph glyph-name="uniFE9C" unicode="&#x62b;" horiz-adv-x="369" arabic-form="medial" 
d="M185 370h35q0 -169 -21 -237q-3 -14 -7 -22q83 -71 177 -71q10 0 10 -9v-22q0 -9 -10 -9q-57 0 -108 22q-46 20 -86 57q-25 -36 -66 -57q-44 -22 -109 -22q-10 0 -10 9v22q0 9 10 9q112 0 150 66q21 35 28 91.5t7 172.5zM239 518l43 42l42 -42l-42 -42zM71 518l42 42
l42 -42l-42 -42zM163 628l35 36l36 -36l-35 -36z" />
    <glyph glyph-name="uniFE9E" unicode="&#x62c;" horiz-adv-x="653" arabic-form="final" 
d="M195 538q40 0 81 -26t76 -61.5t98.5 -83t135.5 -79.5l-10 -38q-50 -2 -75 -4v-93q0 -56 39.5 -84.5t112.5 -28.5q10 0 10 -9v-22q0 -9 -10 -9q-86 0 -135.5 38t-49.5 109v95q-60 -8 -107 -22q-131 -40 -199.5 -114.5t-68.5 -157.5q0 -91 61.5 -137t177.5 -46q89 0 225 41
v-35q-139 -46 -230 -46q-131 0 -201.5 55t-70.5 165q0 88 63.5 169.5t195.5 127.5q86 31 203 38q-33 18 -60 36q-45 32 -101.5 83.5t-92 75t-73.5 23.5q-50 0 -120 -31v35q61 36 125 36zM316 6l42 42l43 -42l-42 -42z" />
    <glyph glyph-name="uniFE9F" unicode="&#x62c;" horiz-adv-x="606" arabic-form="initial" 
d="M186 449q40 0 80.5 -23t74.5 -54.5t96.5 -76t133.5 -75.5l-10 -38q-64 -15 -119.5 -40t-94 -48.5t-83.5 -45.5t-111 -35t-153 -13q-10 0 -10 9v22q0 9 10 9q81 0 150 15t106 31.5t96 47.5t91 45q34 15 73 27q-65 32 -109 65q-24 18 -64 51t-59 47t-47.5 26.5t-55.5 12.5
q-49 0 -117 -30v34q62 37 122 37zM215 -147l42 42l43 -42l-42 -42z" />
    <glyph glyph-name="uniFEA0" unicode="&#x62c;" horiz-adv-x="637" arabic-form="medial" 
d="M186 449q40 0 80.5 -23t74.5 -54.5t96.5 -76t133.5 -75.5l-10 -38q-34 -8 -49 -13v-24q0 -105 125 -105q10 0 10 -9v-22q0 -9 -10 -9q-158 0 -158 141v16l-22 -8q-41 -17 -96.5 -48.5t-92 -50.5t-107 -34.5t-161.5 -15.5q-10 0 -10 9v22q0 9 10 9q81 0 150 15t106 31.5
t96 47.5t91 45q34 15 73 27q-65 32 -109 65q-24 18 -64 51t-59 47t-47.5 26.5t-55.5 12.5q-49 0 -117 -30v34q62 37 122 37zM215 -148l42 42l43 -42l-42 -42z" />
    <glyph glyph-name="uniFEA2" unicode="&#x62d;" horiz-adv-x="653" arabic-form="final" 
d="M195 538q40 0 81 -26t76 -61.5t98.5 -83t135.5 -79.5l-10 -38q-50 -2 -75 -4v-93q0 -56 39.5 -84.5t112.5 -28.5q10 0 10 -9v-22q0 -9 -10 -9q-86 0 -135.5 38t-49.5 109v95q-60 -8 -107 -22q-131 -40 -199.5 -114.5t-68.5 -157.5q0 -91 61.5 -137t177.5 -46q89 0 225 41
v-35q-139 -46 -230 -46q-131 0 -201.5 55t-70.5 165q0 88 63.5 169.5t195.5 127.5q86 31 203 38q-33 18 -60 36q-45 32 -101.5 83.5t-92 75t-73.5 23.5q-50 0 -120 -31v35q61 36 125 36z" />
    <glyph glyph-name="uniFEA3" unicode="&#x62d;" horiz-adv-x="606" arabic-form="initial" 
d="M186 449q40 0 80.5 -23t74.5 -54.5t96.5 -76t133.5 -75.5l-10 -38q-64 -15 -119.5 -40t-94 -48.5t-83.5 -45.5t-111 -35t-153 -13q-10 0 -10 9v22q0 9 10 9q81 0 150 15t106 31.5t96 47.5t91 45q34 15 73 27q-65 32 -109 65q-24 18 -64 51t-59 47t-47.5 26.5t-55.5 12.5
q-49 0 -117 -30v34q62 37 122 37z" />
    <glyph glyph-name="uniFEA4" unicode="&#x62d;" horiz-adv-x="637" arabic-form="medial" 
d="M186 449q40 0 80.5 -23t74.5 -54.5t96.5 -76t133.5 -75.5l-10 -38q-34 -8 -49 -13v-24q0 -105 125 -105q10 0 10 -9v-22q0 -9 -10 -9q-158 0 -158 141v16l-22 -8q-41 -17 -96.5 -48.5t-92 -50.5t-107 -34.5t-161.5 -15.5q-10 0 -10 9v22q0 9 10 9q81 0 150 15t106 31.5
t96 47.5t91 45q34 15 73 27q-65 32 -109 65q-24 18 -64 51t-59 47t-47.5 26.5t-55.5 12.5q-49 0 -117 -30v34q62 37 122 37z" />
    <glyph glyph-name="uniFEA6" unicode="&#x62e;" horiz-adv-x="653" arabic-form="final" 
d="M195 538q40 0 81 -26t76 -61.5t98.5 -83t135.5 -79.5l-10 -38q-50 -2 -75 -4v-93q0 -56 39.5 -84.5t112.5 -28.5q10 0 10 -9v-22q0 -9 -10 -9q-86 0 -135.5 38t-49.5 109v95q-60 -8 -107 -22q-131 -40 -199.5 -114.5t-68.5 -157.5q0 -91 61.5 -137t177.5 -46q89 0 225 41
v-35q-139 -46 -230 -46q-131 0 -201.5 55t-70.5 165q0 88 63.5 169.5t195.5 127.5q86 31 203 38q-33 18 -60 36q-45 32 -101.5 83.5t-92 75t-73.5 23.5q-50 0 -120 -31v35q61 36 125 36zM378 626l42 42l43 -42l-42 -42z" />
    <glyph glyph-name="uniFEA7" unicode="&#x62e;" horiz-adv-x="606" arabic-form="initial" 
d="M186 449q40 0 80.5 -23t74.5 -54.5t96.5 -76t133.5 -75.5l-10 -38q-64 -15 -119.5 -40t-94 -48.5t-83.5 -45.5t-111 -35t-153 -13q-10 0 -10 9v22q0 9 10 9q81 0 150 15t106 31.5t96 47.5t91 45q34 15 73 27q-65 32 -109 65q-24 18 -64 51t-59 47t-47.5 26.5t-55.5 12.5
q-49 0 -117 -30v34q62 37 122 37zM169 615l42 42l43 -42l-42 -42z" />
    <glyph glyph-name="uniFEA8" unicode="&#x62e;" horiz-adv-x="637" arabic-form="medial" 
d="M186 449q40 0 80.5 -23t74.5 -54.5t96.5 -76t133.5 -75.5l-10 -38q-34 -8 -49 -13v-24q0 -105 125 -105q10 0 10 -9v-22q0 -9 -10 -9q-158 0 -158 141v16l-22 -8q-41 -17 -96.5 -48.5t-92 -50.5t-107 -34.5t-161.5 -15.5q-10 0 -10 9v22q0 9 10 9q81 0 150 15t106 31.5
t96 47.5t91 45q34 15 73 27q-65 32 -109 65q-24 18 -64 51t-59 47t-47.5 26.5t-55.5 12.5q-49 0 -117 -30v34q62 37 122 37zM169 614l42 42l43 -42l-42 -42z" />
    <glyph glyph-name="uniFEAA" unicode="&#x62f;" horiz-adv-x="529" arabic-form="final" 
d="M25 34v37q105 -31 188 -31q90 0 178 35q-18 29 -34 80q-43 140 -69 330h40q25 -190 66 -327q19 -66 51.5 -92t83.5 -26q10 0 10 -9v-22q0 -9 -10 -9q-62 0 -105 35l-12 12q-55 -24 -99 -35q-49 -12 -100 -12q-87 0 -188 34z" />
    <glyph glyph-name="uniFEAC" unicode="&#x630;" horiz-adv-x="529" arabic-form="final" 
d="M25 34v37q105 -31 188 -31q90 0 178 35q-18 29 -34 80q-43 140 -69 330h40q25 -190 66 -327q19 -66 51.5 -92t83.5 -26q10 0 10 -9v-22q0 -9 -10 -9q-62 0 -105 35l-12 12q-55 -24 -99 -35q-49 -12 -100 -12q-87 0 -188 34zM257 632l42 42l43 -42l-42 -42z" />
    <glyph glyph-name="uniFEAE" unicode="&#x631;" horiz-adv-x="326" arabic-form="final" 
d="M136 440h37q13 -89 26 -216h1l7 -60q5 -41 17 -67.5t30.5 -38t34.5 -15t38 -3.5q10 0 10 -9v-22q0 -9 -10 -9q-58 0 -96 35q-13 11 -20 27v-33q0 -244 -237 -244v38q96 0 148.5 51.5t52.5 155.5q0 135 -39 410z" />
    <glyph glyph-name="uniFEB0" unicode="&#x632;" horiz-adv-x="326" arabic-form="final" 
d="M136 440h37q13 -89 26 -216h1l7 -60q5 -41 17 -67.5t30.5 -38t34.5 -15t38 -3.5q10 0 10 -9v-22q0 -9 -10 -9q-58 0 -96 35q-13 11 -20 27v-33q0 -244 -237 -244v38q96 0 148.5 51.5t52.5 155.5q0 135 -39 410zM103 578l42 42l43 -42l-42 -42z" />
    <glyph glyph-name="uniFEB2" unicode="&#x633;" horiz-adv-x="1305" arabic-form="final" 
d="M477 440h38q33 -219 33 -341q0 -16 -1 -23q35 -17 68 -26q37 -10 70 -10q94 0 129 66q19 34 26 92.5t7 171.5h36q0 -212 -41 -287l-3 -5q33 -17 66 -26q43 -12 75 -12q94 0 129 66q19 34 26 92.5t7 171.5v70h36v-70q0 -108 -9 -176q-8 -57 -23 -91q38 -32 73 -47
q36 -16 87 -16q10 0 10 -9v-22q0 -9 -10 -9q-55 0 -100 19q-37 16 -76 52q-20 -29 -57 -49q-41 -22 -89 -22q-37 0 -85 14q-41 13 -82 36q-15 -15 -39 -28q-41 -22 -89 -22q-67 0 -144 39q-3 -36 -10 -63q-44 -191 -245 -191q-111 0 -173 66.5t-62 187.5q0 114 45 246h35
q-45 -122 -45 -232q0 -113 53 -170.5t155 -57.5q108 0 161 66.5t53 207.5q0 105 -35 341z" />
    <glyph glyph-name="uniFEB3" unicode="&#x633;" horiz-adv-x="844" arabic-form="initial" 
d="M145 370h35q0 -212 -41 -287l-1 -2q30 -18 70 -29q44 -12 73 -12q94 0 129 66q20 35 27 93t7 171h35q0 -212 -41 -287l-2 -4q39 -19 73 -28q42 -11 78 -11q156 0 156 148q0 58 -37 297h38q34 -221 34 -294q0 -191 -186 -191q-44 0 -91 14q-36 11 -86 38q-15 -15 -40 -30
q-41 -22 -89 -22q-37 0 -85 14q-42 13 -84 38q-46 -52 -117 -52q-10 0 -10 9v22q0 9 10 9q76 0 112 66q33 67 33 264z" />
    <glyph glyph-name="uniFEB4" unicode="&#x633;" horiz-adv-x="901" arabic-form="medial" 
d="M145 370h35q0 -212 -41 -287l-1 -2q30 -18 70 -29q44 -12 73 -12q94 0 129 66q20 35 27 93t7 171h35q0 -212 -41 -287l-3 -5q33 -17 66 -26q43 -12 75 -12q94 0 129 66q19 34 26 92.5t7 171.5v70h36v-70q0 -108 -9 -176q-8 -57 -23 -91q39 -33 72 -47q36 -16 87 -16
q10 0 10 -9v-22q0 -9 -10 -9q-55 0 -100 19q-37 16 -76 51q-19 -28 -56 -48q-41 -22 -89 -22q-37 0 -85 14q-41 13 -82 36q-17 -17 -38 -28q-41 -22 -89 -22q-37 0 -85 14q-42 13 -84 38q-46 -52 -117 -52q-10 0 -10 9v22q0 9 10 9q76 0 112 66q33 67 33 264z" />
    <glyph glyph-name="uniFEB6" unicode="&#x634;" horiz-adv-x="1305" arabic-form="final" 
d="M477 440h38q33 -219 33 -341q0 -16 -1 -23q35 -17 68 -26q37 -10 70 -10q94 0 129 66q19 34 26 92.5t7 171.5h36q0 -212 -41 -287l-3 -5q33 -17 66 -26q43 -12 75 -12q94 0 129 66q19 34 26 92.5t7 171.5v70h36v-70q0 -108 -9 -176q-8 -57 -23 -91q38 -32 73 -47
q36 -16 87 -16q10 0 10 -9v-22q0 -9 -10 -9q-55 0 -100 19q-37 16 -76 52q-20 -29 -57 -49q-41 -22 -89 -22q-37 0 -85 14q-41 13 -82 36q-15 -15 -39 -28q-41 -22 -89 -22q-67 0 -144 39q-3 -36 -10 -63q-44 -191 -245 -191q-111 0 -173 66.5t-62 187.5q0 114 45 246h35
q-45 -122 -45 -232q0 -113 53 -170.5t155 -57.5q108 0 161 66.5t53 207.5q0 105 -35 341zM901 533l43 42l42 -42l-42 -42zM733 533l42 42l42 -42l-42 -42zM825 643l35 36l36 -36l-35 -36z" />
    <glyph glyph-name="uniFEB7" unicode="&#x634;" horiz-adv-x="844" arabic-form="initial" 
d="M145 370h35q0 -212 -41 -287l-1 -2q30 -18 70 -29q44 -12 73 -12q94 0 129 66q20 35 27 93t7 171h35q0 -212 -41 -287l-2 -4q39 -19 73 -28q42 -11 78 -11q156 0 156 148q0 58 -37 297h38q34 -221 34 -294q0 -191 -186 -191q-44 0 -91 14q-36 11 -86 38q-15 -15 -40 -30
q-41 -22 -89 -22q-37 0 -85 14q-42 13 -84 38q-46 -52 -117 -52q-10 0 -10 9v22q0 9 10 9q76 0 112 66q33 67 33 264zM507 534l43 42l42 -42l-42 -42zM339 534l42 42l42 -42l-42 -42zM431 644l35 36l36 -36l-35 -36z" />
    <glyph glyph-name="uniFEB8" unicode="&#x634;" horiz-adv-x="901" arabic-form="medial" 
d="M145 370h35q0 -212 -41 -287l-1 -2q30 -18 70 -29q44 -12 73 -12q94 0 129 66q20 35 27 93t7 171h35q0 -212 -41 -287l-3 -5q33 -17 66 -26q43 -12 75 -12q94 0 129 66q19 34 26 92.5t7 171.5v70h36v-70q0 -108 -9 -176q-8 -57 -23 -91q39 -33 72 -47q36 -16 87 -16
q10 0 10 -9v-22q0 -9 -10 -9q-55 0 -100 19q-37 16 -76 51q-19 -28 -56 -48q-41 -22 -89 -22q-37 0 -85 14q-41 13 -82 36q-17 -17 -38 -28q-41 -22 -89 -22q-37 0 -85 14q-42 13 -84 38q-46 -52 -117 -52q-10 0 -10 9v22q0 9 10 9q76 0 112 66q33 67 33 264zM499 533l43 42
l42 -42l-42 -42zM331 533l42 42l42 -42l-42 -42zM423 643l35 36l36 -36l-35 -36z" />
    <glyph glyph-name="uniFEBA" unicode="&#x635;" horiz-adv-x="1254" arabic-form="final" 
d="M477 440h38q15 -100 24 -183q3 -28 7 -82q74 86 130 142q95 97 163.5 135t137.5 38q88 0 147 -58t59 -145q0 -67 -27 -119q-19 -40 -53 -72q37 -28 64 -40q36 -16 87 -16q10 0 10 -9v-22q0 -9 -10 -9q-55 0 -100 19q-36 15 -79 55q-49 -34 -117 -54q-72 -20 -161 -20
q-102 0 -212 21l-41 8q-3 -27 -9 -53q-44 -191 -245 -191q-111 0 -173 66.5t-62 187.5q0 114 45 246h35q-45 -122 -45 -232q0 -113 53 -170.5t155 -57.5q108 0 161 66.5t53 207.5q0 105 -35 341zM590 56q98 -16 195 -16q167 0 263.5 64t96.5 174q0 76 -49 124t-124 48
q-71 0 -142 -46.5t-163 -143.5l-120 -129q1 -11 1 -32q0 -24 -1 -35q7 -2 22 -4.5z" />
    <glyph glyph-name="uniFEBB" unicode="&#x635;" horiz-adv-x="992" arabic-form="initial" 
d="M182 370h35q-14 -171 -38 -239q-1 -1 -1 -4q43 -18 75 -29q108 127 171 193q107 113 174.5 153.5t131.5 40.5q88 0 147 -58t59 -145q0 -132 -103 -207t-283 -75q-145 0 -316 64q-41 17 -71 31q-19 -34 -50 -59q-45 -36 -113 -36q-10 0 -10 9v22q0 9 10 9q108 0 145 100
q25 65 37 230zM346 68q105 -28 192 -28q168 0 264 61.5t96 171.5q0 76 -49 124t-124 48q-56 0 -122.5 -43t-168.5 -151q-78 -86 -145 -166q38 -12 57 -17z" />
    <glyph glyph-name="uniFEBC" unicode="&#x635;" horiz-adv-x="1006" arabic-form="medial" 
d="M182 370h35q-14 -171 -38 -239q-1 -1 -1 -4q43 -18 75 -29q108 127 171 193q107 113 174.5 153.5t131.5 40.5q88 0 147 -58t59 -145q0 -132 -103 -207t-283 -75q-145 0 -316 64q-41 17 -71 31q-19 -34 -50 -59q-45 -36 -113 -36q-10 0 -10 9v22q0 9 10 9q108 0 145 100
q25 65 37 230zM346 68q105 -28 192 -28q168 0 264 61.5t96 171.5q0 76 -49 124t-124 48q-56 0 -122.5 -43t-168.5 -151q-78 -86 -145 -166q38 -12 57 -17zM815 86l24 24q43 -37 81 -53.5t86 -16.5q10 0 10 -9v-22q0 -9 -10 -9q-108 0 -191 86z" />
    <glyph glyph-name="uniFEBE" unicode="&#x636;" horiz-adv-x="1254" arabic-form="final" 
d="M477 440h38q15 -100 24 -183q3 -28 7 -82q74 86 130 142q95 97 163.5 135t137.5 38q88 0 147 -58t59 -145q0 -67 -27 -119q-19 -40 -53 -72q37 -28 64 -40q36 -16 87 -16q10 0 10 -9v-22q0 -9 -10 -9q-55 0 -100 19q-36 15 -79 55q-49 -34 -117 -54q-72 -20 -161 -20
q-102 0 -212 21l-41 8q-3 -27 -9 -53q-44 -191 -245 -191q-111 0 -173 66.5t-62 187.5q0 114 45 246h35q-45 -122 -45 -232q0 -113 53 -170.5t155 -57.5q108 0 161 66.5t53 207.5q0 105 -35 341zM590 56q98 -16 195 -16q167 0 263.5 64t96.5 174q0 76 -49 124t-124 48
q-71 0 -142 -46.5t-163 -143.5l-120 -129q1 -11 1 -32q0 -24 -1 -35q7 -2 22 -4.5zM758 632l42 42l43 -42l-42 -42z" />
    <glyph glyph-name="uniFEBF" unicode="&#x636;" horiz-adv-x="992" arabic-form="initial" 
d="M182 370h35q-14 -171 -38 -239q-1 -1 -1 -4q43 -18 75 -29q108 127 171 193q107 113 174.5 153.5t131.5 40.5q88 0 147 -58t59 -145q0 -132 -103 -207t-283 -75q-145 0 -316 64q-41 17 -71 31q-19 -34 -50 -59q-45 -36 -113 -36q-10 0 -10 9v22q0 9 10 9q108 0 145 100
q25 65 37 230zM346 68q105 -28 192 -28q168 0 264 61.5t96 171.5q0 76 -49 124t-124 48q-56 0 -122.5 -43t-168.5 -151q-78 -86 -145 -166q38 -12 57 -17zM428 632l42 42l43 -42l-42 -42z" />
    <glyph glyph-name="uniFEC0" unicode="&#x636;" horiz-adv-x="1006" arabic-form="medial" 
d="M182 370h35q-14 -171 -38 -239q-1 -1 -1 -4q43 -18 75 -29q108 127 171 193q107 113 174.5 153.5t131.5 40.5q88 0 147 -58t59 -145q0 -132 -103 -207t-283 -75q-145 0 -316 64q-41 17 -71 31q-19 -34 -50 -59q-45 -36 -113 -36q-10 0 -10 9v22q0 9 10 9q108 0 145 100
q25 65 37 230zM346 68q105 -28 192 -28q168 0 264 61.5t96 171.5q0 76 -49 124t-124 48q-56 0 -122.5 -43t-168.5 -151q-78 -86 -145 -166q38 -12 57 -17zM815 86l24 24q43 -37 81 -53.5t86 -16.5q10 0 10 -9v-22q0 -9 -10 -9q-108 0 -191 86zM428 632l42 42l43 -42l-42 -42
z" />
    <glyph glyph-name="uniFEC2" unicode="&#x637;" horiz-adv-x="891" arabic-form="final" 
d="M218 725h37v-341q0 -43 -4 -92q-5 -61 -7 -85q14 18 49 57q111 127 181.5 176.5t138.5 49.5q86 0 144.5 -58t58.5 -145q0 -132 -106 -209.5t-291 -77.5q-224 0 -394 43v37q47 -10 98 -18l95 114v549zM163 56l51 -6q94 -10 193 -10q174 0 273 63.5t99 174.5q0 76 -49 124
t-122 48q-60 0 -128.5 -51t-173.5 -174q-55 -63 -143 -169zM700 86l24 24q43 -37 81 -53.5t86 -16.5q10 0 10 -9v-22q0 -9 -10 -9q-108 0 -191 86z" />
    <glyph glyph-name="uniFEC3" unicode="&#x637;" horiz-adv-x="789" arabic-form="initial" 
d="M138 725h37v-348q0 -43 -4 -92q-4 -60 -7 -87q49 60 96 112q89 101 148.5 140.5t120.5 39.5q87 0 145 -58t58 -145q0 -132 -106.5 -209.5t-291.5 -77.5h-334q-10 0 -10 9v22q0 9 10 9h36l102 126v559zM80 40h242q174 0 273 63.5t99 174.5q0 76 -48.5 124t-121.5 48
q-61 0 -127.5 -54t-174.5 -184z" />
    <glyph glyph-name="uniFEC4" unicode="&#x637;" horiz-adv-x="799" arabic-form="medial" 
d="M138 725h37v-348q0 -43 -4 -92q-4 -60 -7 -87q49 60 96 112q89 101 148.5 140.5t120.5 39.5q87 0 145 -58t58 -145q0 -132 -106.5 -209.5t-291.5 -77.5h-334q-10 0 -10 9v22q0 9 10 9h36l102 126v559zM80 40h242q174 0 273 63.5t99 174.5q0 76 -48.5 124t-121.5 48
q-61 0 -127.5 -54t-174.5 -184zM608 86l24 24q43 -37 81 -53.5t86 -16.5q10 0 10 -9v-22q0 -9 -10 -9q-108 0 -191 86z" />
    <glyph glyph-name="uniFEC6" unicode="&#x638;" horiz-adv-x="891" arabic-form="final" 
d="M218 725h37v-341q0 -43 -4 -92q-5 -61 -7 -85q14 18 49 57q111 127 181.5 176.5t138.5 49.5q86 0 144.5 -58t58.5 -145q0 -132 -106 -209.5t-291 -77.5q-224 0 -394 43v37q47 -10 98 -18l95 114v549zM163 56l51 -6q94 -10 193 -10q174 0 273 63.5t99 174.5q0 76 -49 124
t-122 48q-60 0 -128.5 -51t-173.5 -174q-55 -63 -143 -169zM700 86l24 24q43 -37 81 -53.5t86 -16.5q10 0 10 -9v-22q0 -9 -10 -9q-108 0 -191 86zM405 632l42 42l43 -42l-42 -42z" />
    <glyph glyph-name="uniFEC7" unicode="&#x638;" horiz-adv-x="789" arabic-form="initial" 
d="M138 725h37v-348q0 -43 -4 -92q-4 -60 -7 -87q49 60 96 112q89 101 148.5 140.5t120.5 39.5q87 0 145 -58t58 -145q0 -132 -106.5 -209.5t-291.5 -77.5h-334q-10 0 -10 9v22q0 9 10 9h36l102 126v559zM80 40h242q174 0 273 63.5t99 174.5q0 76 -48.5 124t-121.5 48
q-61 0 -127.5 -54t-174.5 -184zM314 632l42 42l43 -42l-42 -42z" />
    <glyph glyph-name="uniFEC8" unicode="&#x638;" horiz-adv-x="799" arabic-form="medial" 
d="M138 725h37v-348q0 -43 -4 -92q-4 -60 -7 -87q49 60 96 112q89 101 148.5 140.5t120.5 39.5q87 0 145 -58t58 -145q0 -132 -106.5 -209.5t-291.5 -77.5h-334q-10 0 -10 9v22q0 9 10 9h36l102 126v559zM80 40h242q174 0 273 63.5t99 174.5q0 76 -48.5 124t-121.5 48
q-61 0 -127.5 -54t-174.5 -184zM608 86l24 24q43 -37 81 -53.5t86 -16.5q10 0 10 -9v-22q0 -9 -10 -9q-108 0 -191 86zM314 632l42 42l43 -42l-42 -42z" />
    <glyph glyph-name="uniFECA" unicode="&#x639;" horiz-adv-x="607" arabic-form="final" 
d="M323 507q91 0 148.5 -47t57.5 -121q0 -94 -128 -174q-13 -8 -63 -38q23 -16 53 -36q92 -51 216 -51q10 0 10 -9v-22q0 -9 -10 -9q-143 0 -243 67q-30 19 -57 43q-9 -5 -37.5 -21.5t-41.5 -24.5q-120 -75 -120 -160q0 -66 62.5 -102.5t176.5 -36.5q91 0 231 41v-35
q-133 -46 -235 -46q-129 0 -201 46.5t-72 130.5q0 106 124 183q23 16 74 44q-48 89 -96 153q-43 57 -93 113l-34 -17v34q62 42 138 68.5t140 26.5zM437 236q54 46 54 95q0 63 -48 99.5t-129 36.5q-56 0 -124 -24q-49 -18 -80 -32q43 -44 94 -114q51 -71 96 -151
q86 45 137 90z" />
    <glyph glyph-name="uniFECB" unicode="&#x639;" horiz-adv-x="544" arabic-form="initial" 
d="M508 82l-8 -39q-240 -43 -500 -43q-10 0 -10 9v22q0 9 10 9q62 0 148 2l74 3q-28 9 -50 21q-120 63 -120 184q-2 93 63 153.5t155 60.5q71 0 164 -37v-35q-90 32 -156 32q-81 0 -135.5 -48.5t-52.5 -131.5q0 -55 37 -102t104 -70q41 -15 100 -17l51 7q45 6 126 20z" />
    <glyph glyph-name="uniFECC" unicode="&#x639;" horiz-adv-x="585" arabic-form="medial" 
d="M307 464q91 0 148.5 -47t57.5 -121q0 -64 -46 -125q-42 -56 -122 -104q47 -13 104 -19q74 -8 135 -8q10 0 10 -9v-22q0 -9 -10 -9q-93 0 -166 14q-53 10 -111 31q-28 -9 -61 -18q-100 -27 -246 -27q-10 0 -10 9v22q0 9 10 9q78 0 142 7q60 6 114 20q-48 90 -99 164
q-51 72 -95 121q-11 -5 -33 -17v34q62 42 138 68.5t140 26.5zM358 112q55 40 86.5 86t31.5 85q0 66 -48 103.5t-130 37.5q-56 0 -124 -24q-49 -18 -80 -32q22 -25 43 -52q54 -66 107 -157q27 -46 47 -86q36 16 67 39z" />
    <glyph glyph-name="uniFECE" unicode="&#x63a;" horiz-adv-x="607" arabic-form="final" 
d="M323 507q91 0 148.5 -47t57.5 -121q0 -94 -128 -174q-13 -8 -63 -38q23 -16 53 -36q92 -51 216 -51q10 0 10 -9v-22q0 -9 -10 -9q-143 0 -243 67q-30 19 -57 43q-9 -5 -37.5 -21.5t-41.5 -24.5q-120 -75 -120 -160q0 -66 62.5 -102.5t176.5 -36.5q91 0 231 41v-35
q-133 -46 -235 -46q-129 0 -201 46.5t-72 130.5q0 106 124 183q23 16 74 44q-48 89 -96 153q-43 57 -93 113l-34 -17v34q62 42 138 68.5t140 26.5zM437 236q54 46 54 95q0 63 -48 99.5t-129 36.5q-56 0 -124 -24q-49 -18 -80 -32q43 -44 94 -114q51 -71 96 -151
q86 45 137 90zM270 653l42 42l43 -42l-42 -42z" />
    <glyph glyph-name="uniFECF" unicode="&#x63a;" horiz-adv-x="544" arabic-form="initial" 
d="M508 82l-8 -39q-240 -43 -500 -43q-10 0 -10 9v22q0 9 10 9q62 0 148 2l74 3q-28 9 -50 21q-120 63 -120 184q-2 93 63 153.5t155 60.5q71 0 164 -37v-35q-90 32 -156 32q-81 0 -135.5 -48.5t-52.5 -131.5q0 -55 37 -102t104 -70q41 -15 100 -17l51 7q45 6 126 20z
M209 615l42 42l43 -42l-42 -42z" />
    <glyph glyph-name="uniFED0" unicode="&#x63a;" horiz-adv-x="585" arabic-form="medial" 
d="M307 464q91 0 148.5 -47t57.5 -121q0 -64 -46 -125q-42 -56 -122 -104q47 -13 104 -19q74 -8 135 -8q10 0 10 -9v-22q0 -9 -10 -9q-93 0 -166 14q-53 10 -111 31q-28 -9 -61 -18q-100 -27 -246 -27q-10 0 -10 9v22q0 9 10 9q78 0 142 7q60 6 114 20q-48 90 -99 164
q-51 72 -95 121q-11 -5 -33 -17v34q62 42 138 68.5t140 26.5zM358 112q55 40 86.5 86t31.5 85q0 66 -48 103.5t-130 37.5q-56 0 -124 -24q-49 -18 -80 -32q22 -25 43 -52q54 -66 107 -157q27 -46 47 -86q36 16 67 39zM249 615l42 42l43 -42l-42 -42z" />
    <glyph glyph-name="uniFED2" unicode="&#x641;" horiz-adv-x="973" arabic-form="final" 
d="M694 464q92 0 151.5 -59.5t59.5 -148.5q0 -78 -46 -133q-37 -44 -102 -73q43 -6 71 -7q63 -3 145 -3q10 0 10 -9v-22q0 -9 -10 -9q-141 0 -235 19l-43 9q-55 -16 -113 -21q-69 -7 -162 -7q-10 0 -10 9v22q0 9 10 9q84 0 142 3q24 1 68 7q-59 25 -96 70q-47 59 -47 136
q0 91 59 149.5t148 58.5zM821 132q46 49 46 122q0 74 -49.5 122t-125.5 48q-72 0 -119.5 -48t-47.5 -123q0 -70 46 -122q45 -51 124 -72q82 24 126 73zM78 388h35q-20 -103 -20 -169q0 -179 211 -179h127q10 0 10 -9v-22q0 -9 -10 -9h-135q-116 0 -178 53t-62 158
q0 70 22 177zM653 614l42 42l43 -42l-42 -42z" />
    <glyph glyph-name="uniFED3" unicode="&#x641;" horiz-adv-x="522" arabic-form="initial" 
d="M261 464q89 0 147.5 -62.5t58.5 -156.5q0 -118 -69 -181.5t-200 -63.5h-198q-10 0 -10 9v22q0 9 10 9h131q-6 18 -10 27q-8 20 -26 51q-45 79 -46 140q-4 84 58 145t154 61zM168 40h41q104 0 161.5 51.5t57.5 146.5q0 82 -48 133.5t-126 51.5q-72 0 -120 -47.5
t-48 -115.5q0 -50 38 -123l27 -53q8 -14 17 -44zM215 614l42 42l43 -42l-42 -42z" />
    <glyph glyph-name="uniFED4" unicode="&#x641;" horiz-adv-x="553" arabic-form="medial" 
d="M274 464q92 0 151.5 -59.5t59.5 -148.5q0 -78 -46 -133q-37 -44 -102 -73q43 -6 71 -7q63 -3 145 -3q10 0 10 -9v-22q0 -9 -10 -9q-141 0 -235 19l-43 9q-55 -16 -113 -21q-69 -7 -162 -7q-10 0 -10 9v22q0 9 10 9q84 0 142 3q24 1 68 7q-59 25 -96 70q-47 59 -47 136
q0 91 59 149.5t148 58.5zM401 132q46 49 46 122q0 74 -49.5 122t-125.5 48q-72 0 -119.5 -48t-47.5 -123q0 -70 46 -122q45 -51 124 -72q82 24 126 73zM235 614l42 42l43 -42l-42 -42z" />
    <glyph glyph-name="uniFED6" unicode="&#x642;" horiz-adv-x="746" arabic-form="final" 
d="M489 454q77 0 125 -53.5t55 -146.5q9 -97 11 -211v-3h66q10 0 10 -9v-22q0 -9 -10 -9h-69q-14 -96 -86 -149q-88 -66 -253 -66q-121 0 -202 65.5t-81 188.5q0 112 45 246h35q-45 -118 -45 -240q2 -107 74 -163.5t193 -56.5q136 0 211 57q58 43 72 118h-92
q-131 0 -196 55.5t-63 169.5q2 102 55.5 165.5t144.5 63.5zM644 40v4q0 75 -12 205q-5 77 -45.5 121t-103.5 44q-71 0 -113 -52t-44 -135q-2 -97 54 -142t169 -45h95zM518 613l43 42l42 -42l-42 -42zM370 613l42 42l42 -42l-42 -42z" />
    <glyph glyph-name="uniFED7" unicode="&#x642;" horiz-adv-x="522" arabic-form="initial" 
d="M261 464q89 0 147.5 -62.5t58.5 -156.5q0 -118 -69 -181.5t-200 -63.5h-198q-10 0 -10 9v22q0 9 10 9h131q-6 18 -10 27q-8 20 -26 51q-45 79 -46 140q-4 84 58 145t154 61zM168 40h41q104 0 161.5 51.5t57.5 146.5q0 82 -48 133.5t-126 51.5q-72 0 -120 -47.5
t-48 -115.5q0 -50 38 -123l27 -53q8 -14 17 -44zM297 612l43 42l42 -42l-42 -42zM149 612l42 42l42 -42l-42 -42z" />
    <glyph glyph-name="uniFED8" unicode="&#x642;" horiz-adv-x="553" arabic-form="medial" 
d="M274 464q92 0 151.5 -59.5t59.5 -148.5q0 -78 -46 -133q-37 -44 -102 -73q43 -6 71 -7q63 -3 145 -3q10 0 10 -9v-22q0 -9 -10 -9q-141 0 -235 19l-43 9q-55 -16 -113 -21q-69 -7 -162 -7q-10 0 -10 9v22q0 9 10 9q84 0 142 3q24 1 68 7q-59 25 -96 70q-47 59 -47 136
q0 91 59 149.5t148 58.5zM401 132q46 49 46 122q0 74 -49.5 122t-125.5 48q-72 0 -119.5 -48t-47.5 -123q0 -70 46 -122q45 -51 124 -72q82 24 126 73zM314 612l43 42l42 -42l-42 -42zM166 612l42 42l42 -42l-42 -42z" />
    <glyph glyph-name="uniFEDA" unicode="&#x643;" horiz-adv-x="868" arabic-form="final" 
d="M77 388h35q-20 -103 -20 -169q0 -179 211 -179h127h1q91 0 154 16q60 15 105 46q-13 36 -13 89v534h37v-537q0 -148 154 -148q10 0 10 -9v-22q0 -9 -10 -9q-98 0 -145 48q-11 13 -20 26q-60 -40 -119 -56q-64 -18 -152 -18h-1h-1h-135q-116 0 -178 53t-62 158
q0 70 22 177zM443 405h77l-11 -35h-125q-42 0 -89 -14v32l25 8q24 8 38 8h9q-30 24 -30 61q0 35 24 59t61 24q34 0 71 -18v-31q-42 14 -64 14q-27 0 -43.5 -14t-16.5 -39q0 -24 20 -39.5t54 -15.5z" />
    <glyph glyph-name="uniFEDB" unicode="&#x643;" horiz-adv-x="577" arabic-form="initial" 
d="M445 795h60v-4l-400 -293l220 -96q107 -46 157 -98.5t50 -120.5q0 -87 -66.5 -135t-186.5 -48h-279q-10 0 -10 9v22q0 9 10 9h285q93 0 151 38t58 105q0 54 -45 98t-145 87l-244 107v37z" />
    <glyph glyph-name="uniFEDC" unicode="&#x643;" horiz-adv-x="660" arabic-form="medial" 
d="M445 795h60v-4l-400 -293l220 -96q107 -46 157 -98.5t50 -120.5q0 -87 -66.5 -135t-186.5 -48h-279q-10 0 -10 9v22q0 9 10 9h285q93 0 151 38t58 105q0 54 -45 98t-145 87l-244 107v37zM469 86l24 24q43 -37 81 -53.5t86 -16.5q10 0 10 -9v-22q0 -9 -10 -9
q-108 0 -191 86z" />
    <glyph glyph-name="uniFEDE" unicode="&#x644;" horiz-adv-x="683" arabic-form="final" 
d="M512 725h38v-566q0 -61 41 -90t92 -29q10 0 10 -9v-22q0 -9 -10 -9q-66 0 -106 34q-14 12 -28 34q-3 -48 -12 -90q-20 -90 -80.5 -141.5t-164.5 -51.5q-112 0 -174.5 66.5t-62.5 187.5q0 114 45 246h35q-45 -122 -45 -232q0 -113 53.5 -170.5t156.5 -57.5
q107 0 159.5 67.5t52.5 208.5v624z" />
    <glyph glyph-name="uniFEDF" unicode="&#x644;" horiz-adv-x="286" arabic-form="initial" 
d="M154 725h37v-534q0 -191 -191 -191q-10 0 -10 9v22q0 9 10 9q154 0 154 148v537z" />
    <glyph glyph-name="uniFEE0" unicode="&#x644;" horiz-adv-x="322" arabic-form="medial" 
d="M131 725h37v-537q0 -148 154 -148q10 0 10 -9v-22q0 -9 -10 -9q-98 0 -145 48l-15 18q-37 -32 -67 -47q-37 -19 -95 -19q-10 0 -10 9v22q0 9 10 9q84 0 146 56q-15 40 -15 95v534z" />
    <glyph glyph-name="uniFEE2" unicode="&#x645;" horiz-adv-x="680" arabic-form="final" 
d="M373 449q52 0 86.5 -33.5t58.5 -108.5l40 -125q28 -87 51.5 -114.5t69.5 -27.5q10 0 10 -9v-22q0 -9 -10 -9q-58 0 -91 34.5t-61 122.5l-39 123q-25 74 -52.5 101.5t-65.5 27.5q-51 0 -105 -81t-65 -213q91 -75 366 -75l-11 -40q-246 0 -338 56q-26 17 -38 33
q-9 14 -10 27q-44 -8 -63 -32q-24 -28 -24 -93q0 -61 36 -266h-37q-36 199 -36 281q0 72 35 110q31 32 89 40q3 30 14 74q24 88 75.5 153.5t114.5 65.5z" />
    <glyph glyph-name="uniFEE3" unicode="&#x645;" horiz-adv-x="540" arabic-form="initial" 
d="M307 439q95 0 138.5 -102.5t49.5 -301.5l-32 -48q-154 0 -308 43q-37 11 -72 26q-4 -6 -5 -9q-29 -47 -78 -47q-10 0 -10 9v22q0 9 10 9q32 0 50 30t51 118q8 23 13 35q47 120 90.5 168t102.5 48zM171 67q93 -25 201 -36q41 -4 89 -4q-8 183 -43 276q-36 96 -112 96
q-47 0 -84 -43t-78 -153l-36 -93l-7 -18q29 -12 70 -25z" />
    <glyph glyph-name="uniFEE4" unicode="&#x645;" horiz-adv-x="590" arabic-form="medial" 
d="M283 449q52 0 86.5 -33.5t58.5 -108.5l40 -125q28 -87 51.5 -114.5t69.5 -27.5q10 0 10 -9v-22q0 -9 -10 -9q-58 0 -91 34.5t-61 122.5l-39 123q-25 74 -52.5 101.5t-65.5 27.5q-51 0 -105 -81t-65 -213q91 -75 366 -75l-11 -40q-124 0 -211 14q-74 14 -117 36
q-25 -19 -56 -34q-36 -16 -81 -16q-10 0 -10 9v22q0 9 10 9q40 0 71 12q19 8 36 18q-11 10 -18 19q-11 17 -11 40q0 63 25.5 136t74.5 128.5t105 55.5z" />
    <glyph glyph-name="uniFEE6" unicode="&#x646;" horiz-adv-x="668" arabic-form="final" 
d="M477 440h38q15 -100 24 -183q5 -36 6 -70l3 -23q5 -41 17 -67.5t30.5 -38t34.5 -15t38 -3.5q10 0 10 -9v-22q0 -9 -10 -9q-58 0 -96 35q-13 13 -25 35q-2 -51 -12 -94q-44 -191 -245 -191q-111 0 -173 66.5t-62 187.5q0 114 45 246h35q-45 -122 -45 -232
q0 -113 53 -170.5t155 -57.5q108 0 161 66.5t53 207.5q0 105 -35 341zM270 470l42 42l43 -42l-42 -42z" />
    <glyph glyph-name="uniFEE7" unicode="&#x646;" horiz-adv-x="256" arabic-form="initial" 
d="M119 485h38q34 -221 34 -294q0 -191 -191 -191q-10 0 -10 9v22q0 9 10 9q156 0 156 148q0 58 -37 297zM80 632l42 42l43 -42l-42 -42z" />
    <glyph glyph-name="uniFEE8" unicode="&#x646;" horiz-adv-x="313" arabic-form="medial" 
d="M158 370h35q0 -108 -9 -176q-8 -57 -24 -96q34 -28 66 -42q36 -16 87 -16q10 0 10 -9v-22q0 -9 -10 -9q-55 0 -100 19q-34 15 -71 47l-17 -18q-51 -48 -125 -48q-10 0 -10 9v22q0 9 10 9q38 0 73 17.5t52 48.5q19 34 26 92.5t7 171.5zM129 515l42 42l43 -42l-42 -42z" />
    <glyph glyph-name="uniFEE9" unicode="&#x647;" horiz-adv-x="806" arabic-form="isolated" 
d="M302 609l1 40q211 0 329 -94t118 -247q0 -128 -77 -285l-42 -36q-70 0 -149 13q-67 10 -141 32l-31 -10q-70 -22 -150 -22q-60 0 -135 23v37q78 -20 130 -20q35 0 73 5q12 2 44 8q-60 29 -93 71q-45 57 -45 132q0 91 57.5 149.5t141.5 58.5q91 0 147 -59.5t56 -148.5
q0 -70 -44 -126q-36 -45 -100 -77q52 -11 112 -19q72 -8 130 -8q78 134 78 274q0 133 -104 221t-306 88zM454 139q45 51 45 115q0 75 -46.5 122.5t-121.5 47.5q-68 0 -114 -47t-46 -124q0 -65 44 -117q43 -50 118 -74q77 27 121 77z" />
    <glyph glyph-name="uniFEEA" unicode="&#x647;" horiz-adv-x="547" arabic-form="final" 
d="M384 538h37v-353q0 -79 29 -112t97 -33q10 0 10 -9v-22q0 -9 -10 -9q-88 0 -125 43l-6 6q-45 -25 -84 -36q-40 -13 -85 -13q-86 0 -139 48.5t-53 130.5q0 77 45 139.5t138 100.5q65 27 146 37v82zM269 394q-84 -29 -130.5 -83.5t-46.5 -126.5q0 -66 42.5 -105t114.5 -39
q42 0 76 10q31 9 75 30q-16 39 -16 107v233q-60 -7 -115 -26z" />
    <glyph glyph-name="uniFEEB" unicode="&#x647;" horiz-adv-x="742" arabic-form="initial" 
d="M238 609l1 40q211 0 329.5 -94t118.5 -247q0 -126 -78 -285l-42 -36q-69 0 -148 13q-68 10 -142 32q-19 -6 -44 -13q-82 -19 -233 -19q-10 0 -10 9v22q0 9 10 9q42 0 124 2q46 2 87 10q-61 28 -96 72q-45 57 -45 132q0 91 57.5 149.5t141.5 58.5q91 0 147.5 -59.5
t56.5 -148.5q0 -70 -45 -126q-36 -45 -99 -77q50 -10 111 -19q72 -8 130 -8q79 135 79 274q0 133 -104 221t-307 88zM390 139q45 51 45 115q0 75 -46.5 122.5t-121.5 47.5q-68 0 -113.5 -47t-45.5 -124q0 -65 44 -117q43 -50 117 -74q77 27 121 77z" />
    <glyph glyph-name="uniFEEC" unicode="&#x647;" horiz-adv-x="538" arabic-form="medial" 
d="M281 538h39q146 -144 146 -278q0 -116 -98 -181q26 -14 65 -26q42 -13 105 -13q10 0 10 -9v-22q0 -9 -10 -9q-34 0 -66 6q-29 7 -42 11q19 -22 29 -45q16 -33 16 -68q0 -56 -41 -87.5t-111 -31.5q-84 0 -144 47t-87 132q-4 12 -10 38q-52 -2 -82 -2q-10 0 -10 9v22
q0 9 10 9q52 0 76 1q-2 30 -2 47q0 101 47 219t160 231zM321 96q108 57 108 162q0 66 -39 130q-34 59 -90 119q-54 -51 -91 -108q-52 -79 -75.5 -160t-23.5 -142q0 -19 2 -53q134 12 209 52zM118 5q1 -3 3.5 -14t4.5 -16q49 -150 207 -150q48 0 77.5 23t29.5 62q0 37 -26 75
q-21 32 -76 76q-83 -42 -220 -56z" />
    <glyph glyph-name="uniFEEE" unicode="&#x648;" horiz-adv-x="512" arabic-form="final" 
d="M255 454q78 0 125.5 -53.5t54.5 -146.5q11 -119 11 -213v-1h66q10 0 10 -9v-22q0 -9 -10 -9h-69q-12 -93 -81 -148q-83 -67 -245 -67v38q145 0 219 59q57 45 70 118h-92q-130 0 -195.5 55.5t-63.5 169.5q2 102 55.5 165.5t144.5 63.5zM410 40v4q0 86 -11 205
q-6 77 -46 121t-103 44q-71 0 -114 -52.5t-43 -134.5q-2 -97 53.5 -142t169.5 -45h94z" />
    <glyph glyph-name="uniFEF0" unicode="&#x649;" horiz-adv-x="690" arabic-form="final" 
d="M488 34v37q124 -31 202 -31q10 0 10 -9v-22q0 -9 -10 -9q-26 0 -39 1q-41 -102 -116 -157q-80 -59 -205 -59q-275 0 -275 254q0 114 45 246h35q-45 -122 -45 -232q0 -116 60 -172t187 -56q105 0 179 51q67 47 98 129l-15 3q-42 7 -111 26z" />
    <glyph glyph-name="uniFEF2" unicode="&#x64a;" horiz-adv-x="690" arabic-form="final" 
d="M488 34v37q124 -31 202 -31q10 0 10 -9v-22q0 -9 -10 -9q-26 0 -39 1q-41 -102 -116 -157q-80 -59 -205 -59q-275 0 -275 254q0 114 45 246h35q-45 -122 -45 -232q0 -116 60 -172t187 -56q105 0 179 51q67 47 98 129l-15 3q-42 7 -111 26zM399 -338l43 42l42 -42l-42 -42
zM251 -338l42 42l42 -42l-42 -42z" />
    <glyph glyph-name="uniFEF3" unicode="&#x64a;" horiz-adv-x="324" arabic-form="initial" 
d="M189 485h37q34 -221 34 -294q0 -191 -190 -191h-70q-10 0 -10 9v22q0 9 10 9h70q155 0 155 148q0 48 -36 297zM163 -149l43 42l42 -42l-42 -42zM15 -149l42 42l42 -42l-42 -42z" />
    <glyph glyph-name="uniFEF4" unicode="&#x64a;" horiz-adv-x="369" arabic-form="medial" 
d="M185 370h35q0 -169 -21 -237q-3 -14 -7 -22q83 -71 177 -71q10 0 10 -9v-22q0 -9 -10 -9q-57 0 -108 22q-46 20 -86 57q-25 -36 -66 -57q-44 -22 -109 -22q-10 0 -10 9v22q0 9 10 9q112 0 150 66q21 35 28 91.5t7 172.5zM210 -148l43 42l42 -42l-42 -42zM62 -148l42 42
l42 -42l-42 -42z" />
    <glyph glyph-name=".notdef" horiz-adv-x="500" 
d="M0 0v725h500v-725h-500zM239 362l-220 334v-667zM260 362l221 -333v667zM250 346l-217 -327h433zM33 706l217 -328l216 328h-433z" />
    <glyph glyph-name=".null" 
 />
    <glyph glyph-name="nonmarkingreturn" horiz-adv-x="333" 
 />
    <glyph glyph-name="space" unicode=" " horiz-adv-x="237" 
 />
    <glyph glyph-name="exclam" unicode="!" horiz-adv-x="231" 
d="M128 174h-24l-9 338v213h41v-213zM135 0h-39v104h39v-104z" />
    <glyph glyph-name="quotedbl" unicode="&#x22;" horiz-adv-x="297" 
d="M48 725h45l-12 -240h-21zM204 725h45l-12 -240h-21z" />
    <glyph glyph-name="numbersign" unicode="#" horiz-adv-x="631" 
d="M43 510h151l30 215h38l-30 -215h204l31 215h37l-29 -215h153l-5 -37h-153l-29 -212h152l-6 -37h-151l-30 -224h-40l31 224h-204l-31 -224h-38l31 224h-153l5 37h153l29 212h-153zM227 473l-29 -212h204l29 212h-204z" />
    <glyph glyph-name="dollar" unicode="$" horiz-adv-x="604" 
d="M281 826h35v-88q97 -6 159 -64.5t66 -159.5h-40q-6 92 -57 136.5t-128 51.5v-307l19 -5q47 -13 78.5 -25t68.5 -35t56.5 -58.5t19.5 -83.5q0 -65 -35 -110.5t-88 -66.5t-119 -23v-90h-35v90q-100 4 -167 62.5t-75 167.5h41q4 -93 61 -141.5t140 -52.5v339l-44 11
q-181 49 -181 188q0 80 64.5 126.5t160.5 50.5v87zM327 351l-11 3v-330q84 3 142.5 42.5t58.5 116.5q0 70 -48.5 106.5t-141.5 61.5zM97 565q0 -112 152 -153l32 -8v298q-79 -2 -131.5 -38t-52.5 -99z" />
    <glyph glyph-name="percent" unicode="%" horiz-adv-x="972" 
d="M202 310q-79 0 -118 55.5t-39 155.5t39 155.5t118 55.5t118 -55.5t39 -155.5t-39 -155.5t-118 -55.5zM202 340q58 0 89.5 45t31.5 136t-31.5 136t-89.5 45t-89.5 -45t-31.5 -136t31.5 -136t89.5 -45zM258 0h-45l500 725h46zM773 -7q-79 0 -118 55.5t-39 155.5t39 155.5
t118 55.5t118 -55.5t39 -155.5t-39 -155.5t-118 -55.5zM773 23q58 0 89.5 45t31.5 136t-31.5 136t-89.5 45t-89.5 -45t-31.5 -136t31.5 -136t89.5 -45z" />
    <glyph glyph-name="ampersand" unicode="&#x26;" horiz-adv-x="700" 
d="M270 -13q-104 0 -167.5 58.5t-63.5 152.5q0 159 206 221q-49 54 -72.5 94t-23.5 84q0 65 49 103t128 38q74 0 123 -37t49 -108q0 -67 -47 -112.5t-138 -75.5l219 -228q52 80 71 203h40q-20 -134 -84 -231l144 -149h-53l-114 118q-105 -131 -266 -131zM271 23
q145 0 239 122l-240 248q-189 -51 -189 -194q0 -80 53.5 -128t136.5 -48zM191 598q0 -28 16.5 -60.5t33.5 -53t47 -52.5q86 28 128.5 65t42.5 95q0 52 -37 81.5t-96 29.5q-57 0 -96 -27.5t-39 -77.5z" />
    <glyph glyph-name="quotesingle" unicode="'" horiz-adv-x="141" 
d="M48 725h45l-12 -240h-21z" />
    <glyph glyph-name="parenleft" unicode="(" horiz-adv-x="200" 
d="M43 275q0 130 36 249.5t87 200.5h34q-118 -212 -118 -450q0 -242 118 -450h-34q-51 81 -87 200.5t-36 249.5z" />
    <glyph glyph-name="parenright" unicode=")" horiz-adv-x="200" 
d="M157 275q0 -130 -36.5 -250t-87.5 -200h-33q117 203 117 450q0 243 -117 450h33q51 -80 87.5 -200t36.5 -250z" />
    <glyph glyph-name="asterisk" unicode="*" horiz-adv-x="359" 
d="M197 725v-127l129 42l10 -32l-128 -42l78 -108l-26 -20l-80 108l-78 -108l-28 19l78 108l-127 44l10 33l128 -44v127h34z" />
    <glyph glyph-name="plus" unicode="+" horiz-adv-x="678" 
d="M360 0h-40v252h-251v37h251v249h40v-249h250v-37h-250v-252z" />
    <glyph glyph-name="comma" unicode="," horiz-adv-x="231" 
d="M96 104h39v-104q0 -39 -2 -60.5t-8.5 -44.5t-22 -34t-40.5 -14v39q22 6 28 27t6 86v105z" />
    <glyph glyph-name="hyphen" unicode="-" horiz-adv-x="366" 
d="M323 251h-280v42h280v-42z" />
    <glyph glyph-name="period" unicode="." horiz-adv-x="231" 
d="M135 0h-39v104h39v-104z" />
    <glyph glyph-name="slash" unicode="/" horiz-adv-x="330" 
d="M40 0h-40l291 725h39z" />
    <glyph glyph-name="zero" unicode="0" horiz-adv-x="666" 
d="M334 -13q-140 0 -210 101t-70 275q0 173 70 274t210 101q138 0 208 -101.5t70 -273.5q0 -173 -70 -274.5t-208 -101.5zM334 23q110 0 173 87t63 253q0 165 -63 252.5t-173 87.5q-111 0 -174.5 -87.5t-63.5 -252.5q0 -166 63.5 -253t174.5 -87z" />
    <glyph glyph-name="one" unicode="1" horiz-adv-x="302" 
d="M212 0h-39v593h-155v29q65 0 96 8.5t45 28.5t24 66h29v-725z" />
    <glyph glyph-name="two" unicode="2" horiz-adv-x="568" 
d="M289 738q98 0 157.5 -50t59.5 -139q0 -114 -102.5 -232t-320.5 -279h447v-38h-500v39q226 168 330 285t104 222q0 76 -50 116.5t-125 40.5q-83 0 -138.5 -46t-61.5 -152h-41q6 115 71 174t170 59z" />
    <glyph glyph-name="three" unicode="3" horiz-adv-x="566" 
d="M271 23q91 0 150 46t59 125q0 87 -60 128t-167 41h-11v34h7q108 0 160.5 41.5t52.5 116.5q0 65 -52 106.5t-133 41.5q-80 0 -135.5 -42.5t-69.5 -123.5h-41q15 95 80 148t169 53q98 0 161 -48.5t63 -131.5q0 -69 -41 -116t-104 -60q73 -10 118 -57t45 -129
q0 -99 -72.5 -154t-178.5 -55q-105 0 -172.5 57t-81.5 153h41q17 -87 73.5 -130.5t139.5 -43.5z" />
    <glyph glyph-name="four" unicode="4" horiz-adv-x="605" 
d="M410 670l-355 -433h355v433zM598 237v-37h-148v-200h-40v200h-402v35l404 490h38v-488h148z" />
    <glyph glyph-name="five" unicode="5" horiz-adv-x="587" 
d="M292 23q90 0 150.5 56.5t60.5 153.5q0 98 -59 156t-150 58q-68 0 -119.5 -28.5t-75.5 -79.5l-36 5l50 381h402v-39h-368l-40 -287q29 36 80 60t116 24q106 0 174 -68t68 -182t-73 -180t-180 -66q-105 0 -172.5 56.5t-81.5 153.5h41q15 -88 71.5 -131t141.5 -43z" />
    <glyph glyph-name="six" unicode="6" horiz-adv-x="596" 
d="M95 239q0 -101 59.5 -158.5t148.5 -57.5q91 0 150 58.5t59 147.5q0 99 -57 157.5t-151 58.5q-96 0 -152.5 -59.5t-56.5 -146.5zM313 703q-107 0 -169.5 -93.5t-60.5 -285.5q21 71 80.5 114.5t145.5 43.5q108 0 176 -69.5t68 -181.5q0 -104 -69 -174t-181 -70
q-119 0 -189.5 82.5t-70.5 259.5q0 195 69.5 302t207.5 107q93 0 148.5 -46t69.5 -122h-43q-27 133 -182 133z" />
    <glyph glyph-name="seven" unicode="7" horiz-adv-x="501" 
d="M5 688v37h493v-37q-325 -246 -343 -688h-45q33 451 338 688h-443z" />
    <glyph glyph-name="eight" unicode="8" horiz-adv-x="605" 
d="M301 738q107 0 171.5 -49.5t64.5 -130.5q0 -60 -36.5 -106t-95.5 -62q154 -49 154 -192q0 -99 -72 -155t-186 -56t-186 56t-72 155q0 143 155 192q-60 16 -96 62t-36 106q0 81 64 130.5t171 49.5zM301 372q-99 0 -157.5 -46t-58.5 -128q0 -81 59 -128t157 -47
q99 0 158 47t59 128q0 82 -59 128t-158 46zM496 554q0 70 -52.5 109.5t-142.5 39.5t-142.5 -40t-52.5 -109q0 -65 51 -107t144 -42t144 42t51 107z" />
    <glyph glyph-name="nine" unicode="9" horiz-adv-x="587" 
d="M492 479q0 100 -59.5 156.5t-148.5 56.5q-91 0 -149.5 -57t-58.5 -146q0 -98 57 -156t151 -58q95 0 151.5 59.5t56.5 144.5zM274 23q107 0 169.5 91.5t60.5 280.5q-21 -70 -79.5 -112.5t-146.5 -42.5q-108 0 -176 68t-68 178q0 104 68.5 172.5t181.5 68.5
q119 0 189.5 -81t70.5 -255q0 -89 -15 -160.5t-47 -127t-86.5 -86t-128.5 -30.5q-92 0 -147.5 45.5t-69.5 120.5h42q27 -130 182 -130z" />
    <glyph glyph-name="colon" unicode=":" horiz-adv-x="231" 
d="M135 434h-39v104h39v-104zM135 0h-39v104h39v-104z" />
    <glyph glyph-name="semicolon" unicode=";" horiz-adv-x="231" 
d="M135 434h-39v104h39v-104zM96 104h39v-104q0 -39 -2 -60.5t-8.5 -44.5t-22 -34t-40.5 -14v39q22 6 28 27t6 86v105z" />
    <glyph glyph-name="less" unicode="&#x3c;" horiz-adv-x="678" 
d="M80 289l509 241v-41l-464 -219l464 -216v-43l-509 241v37z" />
    <glyph glyph-name="equal" unicode="=" horiz-adv-x="678" 
d="M573 367h-468v37h468v-37zM573 144h-468v37h468v-37z" />
    <glyph glyph-name="greater" unicode="&#x3e;" horiz-adv-x="678" 
d="M598 289v-37l-509 -241v43l464 216l-464 219v41z" />
    <glyph glyph-name="question" unicode="?" horiz-adv-x="472" 
d="M245 738q92 0 153 -44t61 -125q0 -109 -131 -201q-31 -22 -44.5 -33t-31 -30.5t-24 -42t-6.5 -53.5v-35h-39v35q0 66 27.5 103t94.5 85q112 80 112 170q0 64 -48.5 100t-126.5 36q-87 0 -140 -48.5t-57 -143.5h-40q4 113 69.5 170t170.5 57zM222 0h-39v104h39v-104z" />
    <glyph glyph-name="at" unicode="@" horiz-adv-x="840" 
d="M641 162q-51 0 -77.5 35t-26.5 87q-22 -53 -66 -83.5t-103 -30.5q-60 0 -98.5 42t-38.5 122q0 98 59 167.5t147 69.5q55 0 86.5 -30.5t38.5 -69.5l12 81h34l-38 -235q-6 -49 13 -84.5t62 -35.5q53 0 88 55t35 151q0 133 -89.5 212t-229.5 79q-157 0 -256.5 -100.5
t-99.5 -247.5q0 -143 87.5 -233.5t233.5 -90.5q110 0 203 41l13 -34q-96 -42 -216 -42q-162 0 -260.5 101t-98.5 260q0 163 111 271t284 108q159 0 257.5 -88t98.5 -234q0 -113 -49 -178t-116 -65zM435 537q-69 0 -117 -59.5t-48 -142.5q0 -67 29 -99.5t79 -32.5
q72 0 119 62t47 145q0 127 -109 127z" />
    <glyph glyph-name="A" unicode="A" horiz-adv-x="624" 
d="M10 0l280 725h43l281 -725h-44l-76 197h-366l-75 -197h-43zM311 676l-168 -440h336z" />
    <glyph glyph-name="B" unicode="B" horiz-adv-x="660" 
d="M86 0v725h258q238 0 238 -179q0 -63 -25 -103t-86 -62q142 -30 142 -178q0 -103 -65.5 -153t-177.5 -50h-284zM127 358v-320h242q200 0 200 164q0 83 -49.5 119.5t-156.5 36.5h-236zM127 688v-293h232q180 0 180 148q0 145 -189 145h-223z" />
    <glyph glyph-name="C" unicode="C" horiz-adv-x="702" 
d="M626 216h43q-24 -109 -104.5 -169t-199.5 -60q-152 0 -237.5 105t-85.5 271t86 270.5t239 104.5q117 0 196 -60t103 -169h-43q-21 94 -90.5 142t-166.5 48q-126 0 -203 -91t-77 -245q0 -153 76.5 -245t202.5 -92q104 0 172.5 50t88.5 140z" />
    <glyph glyph-name="D" unicode="D" horiz-adv-x="691" 
d="M605 363q0 82 -20.5 142t-52.5 94.5t-81 55t-95 27t-105 6.5h-124v-650h124q59 0 105 6.5t95 27t81 55t52.5 94.5t20.5 142zM86 725h169q91 0 160 -18t123 -58t82.5 -112t28.5 -174t-28.5 -174.5t-82.5 -112.5t-123 -58t-160 -18h-169v725z" />
    <glyph glyph-name="E" unicode="E" horiz-adv-x="576" 
d="M86 0v725h454v-39h-413v-291h388v-38h-388v-318h413v-39h-454z" />
    <glyph glyph-name="F" unicode="F" horiz-adv-x="525" 
d="M86 0v725h439v-39h-398v-291h373v-38h-373v-357h-41z" />
    <glyph glyph-name="G" unicode="G" horiz-adv-x="742" 
d="M369 738q117 0 197 -59t101 -170h-43q-21 94 -90 142t-166 48q-127 0 -204.5 -91.5t-77.5 -244.5t76 -245t202 -92q50 0 94.5 13t83.5 40t62 77t23 117v33h-208v38h248v-344h-38l-1 131q-69 -144 -265 -144q-152 0 -236.5 104.5t-84.5 271.5q0 166 87 270.5t240 104.5z
" />
    <glyph glyph-name="H" unicode="H" horiz-adv-x="710" 
d="M583 725h41v-725h-41v357h-456v-357h-41v725h41v-330h456v330z" />
    <glyph glyph-name="I" unicode="I" horiz-adv-x="213" 
d="M127 725v-725h-41v725h41z" />
    <glyph glyph-name="J" unicode="J" horiz-adv-x="527" 
d="M401 242v483h41v-472q0 -142 -59.5 -204t-156.5 -62q-95 0 -154 59t-61 195h41q0 -215 174 -215q175 0 175 216z" />
    <glyph glyph-name="K" unicode="K" horiz-adv-x="596" 
d="M127 725v-404l403 404h52l-292 -294l309 -431h-51l-287 401l-134 -134v-267h-41v725h41z" />
    <glyph glyph-name="L" unicode="L" horiz-adv-x="528" 
d="M127 725v-686h401v-39h-442v725h41z" />
    <glyph glyph-name="M" unicode="M" horiz-adv-x="858" 
d="M449 0h-40l-282 685v-685h-41v725h67l276 -677l276 677h67v-725h-41v685z" />
    <glyph glyph-name="N" unicode="N" horiz-adv-x="722" 
d="M636 0h-55l-454 674v-674h-41v725h55l454 -674v674h41v-725z" />
    <glyph glyph-name="O" unicode="O" horiz-adv-x="745" 
d="M86 363q0 -157 80 -247t206 -90q127 0 207 90t80 247t-80 246.5t-207 89.5q-126 0 -206 -89.5t-80 -246.5zM703 363q0 -170 -90 -273t-241 -103q-152 0 -241 104.5t-89 271.5t89 271t241 104q151 0 241 -103t90 -272z" />
    <glyph glyph-name="P" unicode="P" horiz-adv-x="599" 
d="M86 725h214q141 0 216.5 -46.5t75.5 -162.5q0 -49 -14 -85.5t-39 -59.5t-62.5 -37t-80 -19.5t-96.5 -5.5h-173v-309h-41v725zM304 688h-177v-342h177q56 0 96.5 6.5t76 24t54 52.5t18.5 87t-18.5 87.5t-54 53t-76 24.5t-96.5 7z" />
    <glyph glyph-name="Q" unicode="Q" horiz-adv-x="745" 
d="M703 363q0 -180 -102 -285l91 -90l-28 -27l-91 91q-83 -65 -201 -65q-152 0 -241 104.5t-89 271.5t89 271t241 104q151 0 241 -103t90 -272zM86 363q0 -157 80 -247t206 -90q100 0 171 56l-80 80l28 27l80 -81q88 93 88 255q0 157 -80 246.5t-207 89.5q-126 0 -206 -89.5
t-80 -246.5z" />
    <glyph glyph-name="R" unicode="R" horiz-adv-x="635" 
d="M552 0l-178 337q-22 -2 -35 -2h-212v-335h-41v725h216q54 0 94 -4t77.5 -16.5t61.5 -33.5t38 -56t14 -83q0 -163 -171 -189l182 -343h-46zM300 688h-173v-316h173q46 0 78.5 3t65.5 12.5t53.5 26.5t33 46t12.5 70t-12.5 70t-33 46t-53.5 26.5t-65.5 12.5t-78.5 3z" />
    <glyph glyph-name="S" unicode="S" horiz-adv-x="621" 
d="M53 560q0 87 75 132.5t174 45.5q107 0 178 -50.5t91 -145.5h-43q-20 78 -79.5 117.5t-149.5 39.5q-82 0 -142.5 -34t-60.5 -102q0 -113 162 -150l89 -20q37 -8 66 -17t63.5 -25.5t56.5 -37t37.5 -52t15.5 -69.5q0 -67 -39 -114.5t-98 -69t-131 -21.5q-119 0 -194.5 58.5
t-93.5 170.5h43q41 -190 243 -190q38 0 75 8t72.5 25t57.5 50t22 77q0 123 -203 167l-95 21q-38 9 -69.5 22.5t-60.5 35t-45.5 54.5t-16.5 74z" />
    <glyph glyph-name="T" unicode="T" horiz-adv-x="548" 
d="M253 0v686h-253v39h548v-39h-254v-686h-41z" />
    <glyph glyph-name="U" unicode="U" horiz-adv-x="704" 
d="M352 -13q-147 0 -212 72t-65 235v431h41v-438q0 -134 55 -197.5t181 -63.5t181 63.5t55 197.5v438h41v-431q0 -163 -65 -235t-212 -72z" />
    <glyph glyph-name="V" unicode="V" horiz-adv-x="611" 
d="M10 725h45l252 -670l250 670h44l-274 -725h-43z" />
    <glyph glyph-name="W" unicode="W" horiz-adv-x="958" 
d="M502 725l187 -666l194 666h45l-219 -725h-43l-187 659l-186 -659h-43l-220 725h45l197 -666l184 666h46z" />
    <glyph glyph-name="X" unicode="X" horiz-adv-x="634" 
d="M10 0l282 376l-260 349h50l236 -315l236 315h50l-262 -348l282 -377h-51l-256 343l-258 -343h-49z" />
    <glyph glyph-name="Y" unicode="Y" horiz-adv-x="565" 
d="M0 725h46l234 -407l238 407h47l-265 -451v-274h-41v275z" />
    <glyph glyph-name="Z" unicode="Z" horiz-adv-x="613" 
d="M572 725v-37l-485 -649h498v-39h-547v38l484 648h-446v39h496z" />
    <glyph glyph-name="bracketleft" unicode="[" horiz-adv-x="245" 
d="M82 725h143v-36h-104v-828h104v-36h-143v900z" />
    <glyph glyph-name="backslash" unicode="\" horiz-adv-x="330" 
d="M40 725l290 -725h-39l-291 725h40z" />
    <glyph glyph-name="bracketright" unicode="]" horiz-adv-x="245" 
d="M20 725h143v-900h-143v36h104v828h-104v36z" />
    <glyph glyph-name="asciicircum" unicode="^" horiz-adv-x="412" 
d="M227 725l206 -387h-44l-184 340l-184 -340h-43l207 387h42z" />
    <glyph glyph-name="underscore" unicode="_" horiz-adv-x="401" 
d="M391 -39h-380v39h380v-39z" />
    <glyph glyph-name="grave" unicode="`" horiz-adv-x="213" 
d="M152 609l-130 116h58l111 -116h-39z" />
    <glyph glyph-name="a" unicode="a" horiz-adv-x="539" 
d="M438 0l-4 104q-52 -117 -208 -117q-75 0 -127.5 38.5t-52.5 104.5q0 38 16 66t44 47.5t79 34t106.5 24t140.5 20.5v31q0 95 -44 128.5t-119 33.5q-76 0 -117 -37t-48 -96h-42q8 74 64 121.5t144 47.5q97 0 149 -44.5t52 -153.5v-42q0 -15 -0.5 -44.5t-0.5 -43.5v-38
q0 -93 6 -185h-38zM434 232v54q-197 -22 -271.5 -54.5t-74.5 -99.5q0 -50 41.5 -79.5t105.5 -29.5q85 0 142 50t57 159z" />
    <glyph glyph-name="b" unicode="b" horiz-adv-x="588" 
d="M82 725h39v-306q25 60 75.5 94t118.5 34q99 0 163.5 -75t64.5 -205t-64.5 -205t-163.5 -75q-68 0 -118.5 34t-75.5 94v-115h-39v725zM117 267q0 -122 57 -183t136 -61q83 0 137.5 65t54.5 179t-54.5 179t-137.5 65q-79 0 -136 -61t-57 -183z" />
    <glyph glyph-name="c" unicode="c" horiz-adv-x="546" 
d="M287 547q87 0 146.5 -51t74.5 -130h-40q-15 68 -64 106.5t-120 38.5q-89 0 -143.5 -65.5t-54.5 -178.5q0 -120 56 -182t141 -62q74 0 124.5 40t62.5 104h41q-17 -83 -78 -131.5t-151 -48.5q-112 0 -174.5 76t-62.5 203q0 128 64 204.5t178 76.5z" />
    <glyph glyph-name="d" unicode="d" horiz-adv-x="588" 
d="M467 419v306h39v-725h-39v115q-25 -60 -75.5 -94t-118.5 -34q-99 0 -163.5 75t-64.5 205t64.5 205t163.5 75q68 0 118.5 -34t75.5 -94zM471 267q0 122 -57 183t-136 61q-83 0 -137.5 -65t-54.5 -179t54.5 -179t137.5 -65q79 0 136 61t57 183z" />
    <glyph glyph-name="e" unicode="e" horiz-adv-x="574" 
d="M295 -13q-115 0 -182.5 77t-67.5 204q0 128 67.5 203.5t179.5 75.5q110 0 175.5 -78.5t61.5 -203.5h-443q0 -117 59.5 -179.5t151.5 -62.5q149 0 184 135h40q-17 -81 -76.5 -126t-149.5 -45zM291 512q-88 0 -142.5 -56.5t-61.5 -155.5h400q0 87 -53.5 149.5t-142.5 62.5z
" />
    <glyph glyph-name="f" unicode="f" horiz-adv-x="273" 
d="M105 538v70q0 67 23 92t94 25h33v-35h-19q-62 0 -77 -15.5t-15 -74.5v-62h111v-34h-111v-504h-39v504h-79v34h79z" />
    <glyph glyph-name="g" unicode="g" horiz-adv-x="588" 
d="M467 15v121q-25 -60 -75.5 -93.5t-118.5 -33.5q-98 0 -163 73t-65 196q0 122 65 195.5t163 73.5q68 0 118.5 -33.5t75.5 -93.5v118h40v-511q0 -116 -61.5 -165.5t-161.5 -49.5q-87 0 -145.5 43t-66.5 115h41q6 -52 50.5 -87.5t120.5 -35.5q183 0 183 168zM471 278
q0 114 -57.5 173.5t-135.5 59.5q-83 0 -137.5 -62.5t-54.5 -170.5q0 -109 54.5 -171.5t137.5 -62.5q78 0 135.5 59.5t57.5 174.5z" />
    <glyph glyph-name="h" unicode="h" horiz-adv-x="558" 
d="M121 725v-311q18 55 65.5 94t124.5 39q180 0 180 -202v-345h-39v332q0 86 -33 132.5t-116 46.5q-85 0 -133.5 -67t-48.5 -180v-264h-39v725h39z" />
    <glyph glyph-name="i" unicode="i" horiz-adv-x="203" 
d="M82 725h39v-96h-39v96zM82 538h39v-538h-39v538z" />
    <glyph glyph-name="j" unicode="j" horiz-adv-x="203" 
d="M82 725h39v-96h-39v96zM82 -45v583h39v-586q0 -74 -22.5 -100.5t-90.5 -26.5h-23v35h9q57 0 72.5 18t15.5 77z" />
    <glyph glyph-name="k" unicode="k" horiz-adv-x="476" 
d="M82 725h39v-484l283 297h47l-212 -223l237 -315h-47l-216 288l-92 -97v-191h-39v725z" />
    <glyph glyph-name="l" unicode="l" horiz-adv-x="203" 
d="M121 725v-725h-39v725h39z" />
    <glyph glyph-name="m" unicode="m" horiz-adv-x="904" 
d="M121 264v-264h-39v538h39v-124q19 56 64 94.5t120 38.5q144 0 169 -137q54 137 189 137q174 0 174 -202v-345h-39v332q0 86 -31 132.5t-112 46.5q-82 0 -129 -67t-47 -180v-264h-39v332q0 86 -31 132.5t-112 46.5q-82 0 -129 -67t-47 -180z" />
    <glyph glyph-name="n" unicode="n" horiz-adv-x="558" 
d="M121 538v-124q18 55 65.5 94t124.5 39q180 0 180 -202v-345h-39v332q0 86 -33 132.5t-116 46.5q-85 0 -133.5 -67t-48.5 -180v-264h-39v538h39z" />
    <glyph glyph-name="o" unicode="o" horiz-adv-x="571" 
d="M86 267q0 -119 54.5 -181.5t144.5 -62.5t144.5 62.5t54.5 181.5t-54.5 181.5t-144.5 62.5t-144.5 -62.5t-54.5 -181.5zM45 267q0 136 67.5 208t172.5 72t173 -72t68 -208t-67.5 -208t-173.5 -72q-105 0 -172.5 72t-67.5 208z" />
    <glyph glyph-name="p" unicode="p" horiz-adv-x="588" 
d="M82 538h39v-119q25 60 75.5 94t118.5 34q99 0 163.5 -75t64.5 -205t-64.5 -205t-163.5 -75q-68 0 -118.5 34t-75.5 94v-290h-39v713zM117 267q0 -122 57 -183t136 -61q83 0 137.5 65t54.5 179t-54.5 179t-137.5 65q-79 0 -136 -61t-57 -183z" />
    <glyph glyph-name="q" unicode="q" horiz-adv-x="588" 
d="M467 419v119h39v-713h-39v290q-25 -60 -75.5 -94t-118.5 -34q-99 0 -163.5 75t-64.5 205t64.5 205t163.5 75q68 0 118.5 -34t75.5 -94zM471 267q0 122 -57 183t-136 61q-83 0 -137.5 -65t-54.5 -179t54.5 -179t137.5 -65q79 0 136 61t57 183z" />
    <glyph glyph-name="r" unicode="r" horiz-adv-x="300" 
d="M296 541v-41h-19q-88 0 -122.5 -65t-34.5 -188v-247h-38v538h36v-116q17 54 59 86.5t105 32.5h14z" />
    <glyph glyph-name="s" unicode="s" horiz-adv-x="507" 
d="M458 399h-40q-28 112 -169 112q-59 0 -106.5 -26t-47.5 -75q0 -79 114 -104l79 -15q85 -17 134 -49.5t49 -98.5q0 -74 -60 -115t-150 -41q-91 0 -148 44.5t-71 125.5h41q30 -134 183 -134q65 0 114.5 28.5t49.5 85.5q0 51 -38 76.5t-109 39.5l-83 16q-145 28 -145 139
q0 61 58 100t141 39q84 0 137.5 -39t66.5 -109z" />
    <glyph glyph-name="t" unicode="t" horiz-adv-x="288" 
d="M109 538v127h38v-127h112v-34h-112v-368q0 -66 13 -83t74 -17h25v-36h-38q-70 0 -91 23t-21 99v382h-95v34h95z" />
    <glyph glyph-name="u" unicode="u" horiz-adv-x="546" 
d="M425 0v120q-19 -56 -63.5 -94.5t-119.5 -38.5q-175 0 -175 202v349h39v-336q0 -85 32 -132t112 -47q83 0 129 67t46 180v268h39v-538h-39z" />
    <glyph glyph-name="v" unicode="v" horiz-adv-x="471" 
d="M49 538l188 -486l185 486h44l-210 -538h-39l-212 538h44z" />
    <glyph glyph-name="w" unicode="w" horiz-adv-x="741" 
d="M201 59l149 479h41l151 -480l140 480h44l-165 -538h-38l-154 483l-151 -483h-37l-166 538h44z" />
    <glyph glyph-name="x" unicode="x" horiz-adv-x="501" 
d="M467 538l-194 -260l208 -278h-48l-184 246l-183 -246h-46l206 277l-194 261h47l171 -230l171 230h46z" />
    <glyph glyph-name="y" unicode="y" horiz-adv-x="471" 
d="M88 -175h-30v35h31q47 0 66 14.5t44 77.5l19 49l-213 537h44l188 -485l185 485h44l-231 -591q-31 -77 -57 -99.5t-90 -22.5z" />
    <glyph glyph-name="z" unicode="z" horiz-adv-x="487" 
d="M32 0v33l351 469h-328v36h375v-33l-351 -469h357v-36h-404z" />
    <glyph glyph-name="braceleft" unicode="{" horiz-adv-x="243" 
d="M223 -175h-19q-71 0 -94 25t-23 95v192q0 54 -14.5 85.5t-55.5 34.5v37q41 2 55.5 34t14.5 86v191q0 70 23 95t94 25h19v-35h-10q-58 0 -72.5 -16t-14.5 -74v-187q0 -66 -16.5 -96.5t-51.5 -39.5v-3q35 -10 51.5 -40t16.5 -96v-189q0 -57 14.5 -73t72.5 -16h10v-35z" />
    <glyph glyph-name="bar" unicode="|" horiz-adv-x="211" 
d="M86 725h39v-815h-39v815z" />
    <glyph glyph-name="braceright" unicode="}" horiz-adv-x="243" 
d="M20 -175v35h9q57 0 72.5 16.5t15.5 72.5v189q0 66 16 96t51 40v3q-35 9 -51 39t-16 97v187q0 57 -15.5 73.5t-72.5 16.5h-9v35h18q71 0 94.5 -25t23.5 -95v-191q0 -54 14.5 -86t55.5 -34v-37q-41 -3 -55.5 -34.5t-14.5 -85.5v-192q0 -70 -23.5 -95t-94.5 -25h-18z" />
    <glyph glyph-name="asciitilde" unicode="~" horiz-adv-x="678" 
d="M456 252q74 0 84 76h40q-16 -113 -124 -113q-42 0 -119 38.5t-115 38.5q-73 0 -83 -77h-40q7 56 39 84.5t84 28.5q48 0 124 -38t110 -38z" />
    <glyph glyph-name="uni00A0" unicode="&#xa0;" horiz-adv-x="237" 
 />
    <glyph glyph-name="exclamdown" unicode="&#xa1;" horiz-adv-x="231" 
d="M136 -175h-41v201l8 328h24l9 -328v-201zM135 434h-39v104h39v-104z" />
    <glyph glyph-name="cent" unicode="&#xa2;" horiz-adv-x="541" 
d="M263 620h35v-73q84 -4 139.5 -54t70.5 -127h-40q-14 64 -59 102t-111 42v-487q69 5 114.5 44t57.5 100h41q-16 -78 -72.5 -126t-140.5 -53v-83h-35v83q-103 6 -160.5 82t-57.5 196q0 122 57 196t161 84v74zM86 267q0 -112 49.5 -174.5t127.5 -68.5v486q-81 -8 -129 -72
t-48 -171z" />
    <glyph glyph-name="sterling" unicode="&#xa3;" horiz-adv-x="599" 
d="M316 703q-34 0 -65 -6.5t-61 -20.5t-48 -42.5t-18 -66.5q0 -23 8 -49t15 -41.5t25.5 -49t23.5 -43.5h219v-31h-203q29 -63 29 -108q0 -61 -32.5 -116.5t-79.5 -82.5l1 -1q48 15 88 15q36 0 103.5 -18.5t111.5 -18.5q58 0 107 20l14 -35q-55 -23 -120 -23
q-39 0 -113.5 18.5t-113.5 18.5q-82 0 -151 -33l-14 30q35 18 67.5 44t61 74.5t28.5 102.5q0 47 -31 113h-124v31h108q-4 8 -16 29t-17 30.5t-13.5 28t-12.5 31.5t-7.5 30t-3.5 33q0 59 36.5 99t87.5 56.5t111 16.5q109 0 174 -58.5t71 -169.5h-42q-2 53 -19 92t-46 60
t-63.5 31t-75.5 10z" />
    <glyph glyph-name="currency" unicode="&#xa4;" horiz-adv-x="617" 
d="M69 346q0 85 53 151l-67 68l28 28l67 -67q69 59 156 59q89 0 159 -60l69 68l28 -28l-69 -70q52 -67 52 -149q0 -84 -53 -148l70 -71l-28 -28l-70 70q-69 -59 -158 -59q-85 0 -155 57l-68 -68l-28 28l68 69q-54 63 -54 150zM110 346q0 -83 55.5 -141.5t140.5 -58.5
q86 0 143 58.5t57 141.5q0 85 -57 145t-143 60q-85 0 -140.5 -60t-55.5 -145z" />
    <glyph glyph-name="yen" unicode="&#xa5;" horiz-adv-x="565" 
d="M480 101h-181v-101h-39v101h-174v37h174v82h-174v37h174v8l-259 460h44l235 -422l239 422h45l-265 -461v-7h181v-37h-181v-82h181v-37z" />
    <glyph glyph-name="brokenbar" unicode="&#xa6;" horiz-adv-x="203" 
d="M82 725h39v-305h-39v305zM82 215h39v-305h-39v305z" />
    <glyph glyph-name="section" unicode="&#xa7;" horiz-adv-x="539" 
d="M267 -150q65 0 105 29t40 82q0 39 -27 71.5t-99 70.5l-124 66q-72 38 -107 78t-35 97q0 50 36 91.5t88 66.5q-63 48 -63 113q0 59 53 91t126 32q85 0 137.5 -39t63.5 -115h-42q-24 119 -161 119q-61 0 -99 -23.5t-38 -62.5q0 -35 24 -61.5t79 -56.5l150 -79
q72 -37 108 -76.5t36 -94.5q0 -104 -125 -168q60 -49 60 -115q0 -70 -53 -110t-134 -40q-83 0 -135 40t-65 116h42q24 -122 159 -122zM349 390l-145 76q-9 4 -25 14q-51 -22 -85 -56.5t-34 -77.5q0 -45 26.5 -76t91.5 -66l127 -66q31 -16 57 -33q116 55 116 137
q0 45 -30.5 77.5t-98.5 70.5z" />
    <glyph glyph-name="dieresis" unicode="&#xa8;" horiz-adv-x="302" 
d="M22 629v96h39v-96h-39zM240 725h40v-96h-40v96z" />
    <glyph glyph-name="copyright" unicode="&#xa9;" horiz-adv-x="822" 
d="M38 360q0 166 107.5 272t265.5 106q157 0 265 -106t108 -272q0 -164 -108 -268.5t-265 -104.5q-158 0 -265.5 104.5t-107.5 268.5zM77 360q0 -148 95.5 -242.5t238.5 -94.5t238.5 94.5t95.5 242.5q0 151 -95.5 246.5t-238.5 95.5t-238.5 -95.5t-95.5 -246.5zM408 198
q49 0 85 24.5t49 68.5l38 -10q-18 -51 -61.5 -84.5t-110.5 -33.5q-82 0 -132 56t-50 151q0 92 51.5 147t132.5 55q65 0 108.5 -34.5t58.5 -86.5l-37 -11q-12 44 -47 69.5t-85 25.5q-59 0 -100.5 -43.5t-41.5 -121.5q0 -80 41.5 -126t100.5 -46z" />
    <glyph glyph-name="ordfeminine" unicode="&#xaa;" horiz-adv-x="331" 
d="M249 438l-2 47q-31 -54 -114 -54q-43 0 -71.5 22.5t-28.5 59.5q0 50 49.5 73.5t164.5 35.5v11q0 85 -85 85q-38 0 -61 -19.5t-25 -49.5h-36q6 45 39.5 72t84.5 27q117 0 117 -119q0 -23 -0.5 -53t-0.5 -41q0 -16 0.5 -32t1.5 -35t1 -30h-34zM141 461q47 0 77 27.5
t30 87.5v16q-96 -10 -136.5 -27t-40.5 -51q0 -24 19.5 -38.5t50.5 -14.5z" />
    <glyph glyph-name="guillemotleft" unicode="&#xab;" horiz-adv-x="415" 
d="M347 59l-158 225l157 225h42l-154 -224l154 -226h-41zM162 59l-158 225l157 225h42l-154 -224l154 -226h-41z" />
    <glyph glyph-name="logicalnot" unicode="&#xac;" horiz-adv-x="678" 
d="M541 388h-482v38h521v-324h-39v286z" />
    <glyph glyph-name="uni00AD" unicode="&#xad;" horiz-adv-x="366" 
d="M323 251h-280v42h280v-42z" />
    <glyph glyph-name="registered" unicode="&#xae;" horiz-adv-x="822" 
d="M38 360q0 166 107.5 272t265.5 106q157 0 265 -106t108 -272q0 -164 -108 -268.5t-265 -104.5q-158 0 -265.5 104.5t-107.5 268.5zM77 360q0 -148 95.5 -242.5t238.5 -94.5t238.5 94.5t95.5 242.5q0 151 -95.5 246.5t-238.5 95.5t-238.5 -95.5t-95.5 -246.5zM540 173
l-85 171q-5 -1 -16 -1h-127v-170h-38v398h134q78 0 122 -24.5t44 -88.5q0 -81 -82 -106l91 -179h-43zM536 457q0 76 -119 76h-105v-154h111q113 0 113 78z" />
    <glyph glyph-name="macron" unicode="&#xaf;" horiz-adv-x="305" 
d="M283 650h-261v34h261v-34z" />
    <glyph glyph-name="degree" unicode="&#xb0;" horiz-adv-x="324" 
d="M22 596q0 60 40.5 101t99.5 41q60 0 100.5 -41t40.5 -101t-40.5 -101t-100.5 -41q-59 0 -99.5 41t-40.5 101zM63 596q0 -46 27.5 -76t71.5 -30q45 0 72.5 30t27.5 76t-28 76.5t-72 30.5t-71.5 -30.5t-27.5 -76.5z" />
    <glyph glyph-name="plusminus" unicode="&#xb1;" horiz-adv-x="678" 
d="M320 334v203h40v-203h250v-37h-250v-208h-40v208h-251v37h251zM610 0h-541v37h541v-37z" />
    <glyph glyph-name="twosuperior" unicode="&#xb2;" horiz-adv-x="337" 
d="M171 853q58 0 91 -27.5t33 -77.5q0 -61 -53 -125.5t-170 -151.5h235v-33h-282v34q121 92 177 154.5t56 117.5q0 38 -25 58.5t-62 20.5q-43 0 -71.5 -24t-28.5 -79h-36q2 65 38.5 99t97.5 34z" />
    <glyph glyph-name="threesuperior" unicode="&#xb3;" horiz-adv-x="346" 
d="M168 461q48 0 78 23.5t30 65.5q0 89 -124 89h-4v30h3q114 0 114 78q0 33 -25 54.5t-69 21.5q-37 0 -66.5 -21t-35.5 -65h-36q7 54 43.5 85t97.5 31q58 0 92.5 -27t34.5 -75q0 -74 -68 -96q79 -20 79 -104q0 -57 -41.5 -88.5t-101.5 -31.5q-61 0 -99.5 34.5t-44.5 87.5h36
q9 -46 38 -69t69 -23z" />
    <glyph glyph-name="acute" unicode="&#xb4;" horiz-adv-x="213" 
d="M191 725l-130 -116h-39l111 116h58z" />
    <glyph glyph-name="mu" unicode="&#xb5;" horiz-adv-x="561" 
d="M113 -175h-39q8 56 8 148v565h38v-289q0 -104 41.5 -165.5t119.5 -61.5q76 0 117.5 62t41.5 165v289h39v-538h-39v114q-44 -127 -159 -127q-117 0 -161 127v-132q0 -94 -7 -157z" />
    <glyph glyph-name="mu" unicode="&#x3bc;" horiz-adv-x="561" 
d="M113 -175h-39q8 56 8 148v565h38v-289q0 -104 41.5 -165.5t119.5 -61.5q76 0 117.5 62t41.5 165v289h39v-538h-39v114q-44 -127 -159 -127q-117 0 -161 127v-132q0 -94 -7 -157z" />
    <glyph glyph-name="paragraph" unicode="&#xb6;" horiz-adv-x="473" 
d="M0 544q0 84 59 132.5t159 48.5h175v-814h-40v778h-128v-778h-40v457q-76 2 -130.5 50t-54.5 126z" />
    <glyph glyph-name="periodcentered" unicode="&#xb7;" horiz-adv-x="231" 
d="M135 217h-39v104h39v-104z" />
    <glyph glyph-name="cedilla" unicode="&#xb8;" horiz-adv-x="209" 
d="M22 -179l10 29q24 -11 55 -11q63 0 63 42q0 39 -51 39q-25 0 -43 -9l-14 14l48 76h30l-33 -56q13 3 28 3q33 0 52.5 -17t19.5 -47q0 -37 -28.5 -55.5t-67.5 -18.5q-36 0 -69 11z" />
    <glyph glyph-name="onesuperior" unicode="&#xb9;" horiz-adv-x="202" 
d="M143 438h-34v331h-93v23q55 0 74.5 10t29.5 47h23v-411z" />
    <glyph glyph-name="ordmasculine" unicode="&#xba;" horiz-adv-x="344" 
d="M272 588q0 64 -27.5 95.5t-73.5 31.5q-47 0 -74 -31.5t-27 -95.5t27 -95t74 -31q46 0 73.5 31.5t27.5 94.5zM308 588q0 -78 -39 -117.5t-98 -39.5t-98 39.5t-39 117.5t39 118t98 40q58 0 97.5 -40t39.5 -118z" />
    <glyph glyph-name="guillemotright" unicode="&#xbb;" horiz-adv-x="415" 
d="M411 284l-159 -225h-40l154 226l-154 224h41zM226 284l-159 -225h-40l154 226l-154 224h41z" />
    <glyph glyph-name="onequarter" unicode="&#xbc;" horiz-adv-x="739" 
d="M143 317h-34v328h-93v23q55 0 74.5 10t29.5 47h23v-408zM59 0h-45l500 725h46zM607 361l-179 -220h179v220zM721 141v-34h-80v-107h-34v107h-220v31l221 270h33v-267h80z" />
    <glyph glyph-name="onehalf" unicode="&#xbd;" horiz-adv-x="709" 
d="M143 317h-34v328h-93v23q55 0 74.5 10t29.5 47h23v-408zM59 0h-45l500 725h46zM543 415q58 0 91 -27.5t33 -77.5q0 -61 -53 -125.5t-170 -151.5h235v-33h-282v34q121 92 177 154.5t56 117.5q0 38 -25 58.5t-62 20.5q-43 0 -71.5 -24t-28.5 -79h-36q2 65 38.5 99t97.5 34z
" />
    <glyph glyph-name="threequarters" unicode="&#xbe;" horiz-adv-x="883" 
d="M168 340q48 0 78 23.5t30 65.5q0 89 -124 89h-4v30h3q114 0 114 78q0 33 -25 54.5t-69 21.5q-37 0 -66.5 -21t-35.5 -65h-36q7 54 43.5 85t97.5 31q58 0 92.5 -27t34.5 -75q0 -74 -68 -96q79 -20 79 -104q0 -57 -41.5 -88.5t-101.5 -31.5q-61 0 -99.5 34.5t-44.5 87.5h36
q9 -46 38 -69t69 -23zM203 0h-45l500 725h46zM751 361l-179 -220h179v220zM865 141v-34h-80v-107h-34v107h-220v31l221 270h33v-267h80z" />
    <glyph glyph-name="questiondown" unicode="&#xbf;" horiz-adv-x="472" 
d="M220 -180q-90 0 -152 44t-62 125q0 34 10 61.5t33.5 53t38.5 38.5t49 38q56 38 81 70.5t25 88.5v25h40v-25q0 -35 -7.5 -60.5t-28 -49.5t-35.5 -36.5t-53 -41.5q-37 -26 -56 -42.5t-37.5 -48.5t-18.5 -69q0 -64 48.5 -99.5t126.5 -35.5q87 0 139.5 46.5t57.5 135.5l40 -2
q-6 -105 -71.5 -160.5t-167.5 -55.5zM281 434h-39v104h39v-104z" />
    <glyph glyph-name="Agrave" unicode="&#xc0;" horiz-adv-x="624" 
d="M10 0l280 725h43l281 -725h-44l-76 197h-366l-75 -197h-43zM311 676l-168 -440h336zM280 773l-144 113h63l124 -113h-43z" />
    <glyph glyph-name="Aacute" unicode="&#xc1;" horiz-adv-x="624" 
d="M10 0l280 725h43l281 -725h-44l-76 197h-366l-75 -197h-43zM311 676l-168 -440h336zM479 886l-144 -113h-43l124 113h63z" />
    <glyph glyph-name="Acircumflex" unicode="&#xc2;" horiz-adv-x="624" 
d="M10 0l280 725h43l281 -725h-44l-76 197h-366l-75 -197h-43zM311 676l-168 -440h336zM338 886l137 -113h-47l-116 83l-115 -83h-47l139 113h49z" />
    <glyph glyph-name="Atilde" unicode="&#xc3;" horiz-adv-x="624" 
d="M10 0l280 725h43l281 -725h-44l-76 197h-366l-75 -197h-43zM311 676l-168 -440h336zM379 818q44 0 56 58h34q-17 -94 -89 -94q-30 0 -76.5 30t-70.5 30q-43 0 -55 -60h-34q7 45 31 69.5t58 24.5q32 0 78 -29t68 -29z" />
    <glyph glyph-name="Adieresis" unicode="&#xc4;" horiz-adv-x="624" 
d="M10 0l280 725h43l281 -725h-44l-76 197h-366l-75 -197h-43zM311 676l-168 -440h336zM183 877h41v-96h-41v96zM399 877h42v-96h-42v96z" />
    <glyph glyph-name="Aring" unicode="&#xc5;" horiz-adv-x="624" 
d="M10 0l280 725h43l281 -725h-44l-76 197h-366l-75 -197h-43zM311 676l-168 -440h336zM313 932q37 0 61.5 -23t24.5 -59q0 -35 -25 -58t-61 -23t-61.5 23t-25.5 58q0 36 25 59t62 23zM313 904q-23 0 -39 -14.5t-16 -39.5q0 -24 16 -38t39 -14q22 0 38 14t16 38
q0 25 -16 39.5t-38 14.5z" />
    <glyph glyph-name="AE" unicode="&#xc6;" horiz-adv-x="935" 
d="M445 725h455v-39h-414v-291h389v-38h-389v-318h414v-39h-455v197h-280l-121 -197h-44zM445 653l-256 -417h256v417z" />
    <glyph glyph-name="Ccedilla" unicode="&#xc7;" horiz-adv-x="702" 
d="M626 216h43q-24 -109 -104.5 -169t-199.5 -60q-152 0 -237.5 105t-85.5 271t86 270.5t239 104.5q117 0 196 -60t103 -169h-43q-21 94 -90.5 142t-166.5 48q-126 0 -203 -91t-77 -245q0 -153 76.5 -245t202.5 -92q104 0 172.5 50t88.5 140zM273 -179l10 29q24 -11 55 -11
q63 0 63 42q0 39 -51 39q-25 0 -43 -9l-14 14l48 76h30l-33 -56q13 3 28 3q33 0 52.5 -17t19.5 -47q0 -37 -28.5 -55.5t-67.5 -18.5q-36 0 -69 11z" />
    <glyph glyph-name="Egrave" unicode="&#xc8;" horiz-adv-x="576" 
d="M86 0v725h454v-39h-413v-291h388v-38h-388v-318h413v-39h-454zM311 773l-144 113h63l124 -113h-43z" />
    <glyph glyph-name="Eacute" unicode="&#xc9;" horiz-adv-x="576" 
d="M86 0v725h454v-39h-413v-291h388v-38h-388v-318h413v-39h-454zM458 886l-144 -113h-43l124 113h63z" />
    <glyph glyph-name="Ecircumflex" unicode="&#xca;" horiz-adv-x="576" 
d="M86 0v725h454v-39h-413v-291h388v-38h-388v-318h413v-39h-454zM339 886l137 -113h-47l-116 83l-115 -83h-47l139 113h49z" />
    <glyph glyph-name="Edieresis" unicode="&#xcb;" horiz-adv-x="576" 
d="M86 0v725h454v-39h-413v-291h388v-38h-388v-318h413v-39h-454zM187 877h41v-96h-41v96zM403 877h42v-96h-42v96z" />
    <glyph glyph-name="Igrave" unicode="&#xcc;" horiz-adv-x="213" 
d="M127 725v-725h-41v725h41zM85 773l-144 113h63l124 -113h-43z" />
    <glyph glyph-name="Iacute" unicode="&#xcd;" horiz-adv-x="213" 
d="M127 725v-725h-41v725h41zM271 886l-144 -113h-43l124 113h63z" />
    <glyph glyph-name="Icircumflex" unicode="&#xce;" horiz-adv-x="213" 
d="M127 725v-725h-41v725h41zM133 886l137 -113h-47l-116 83l-115 -83h-47l139 113h49z" />
    <glyph glyph-name="Idieresis" unicode="&#xcf;" horiz-adv-x="213" 
d="M127 725v-725h-41v725h41zM-22 877h41v-96h-41v96zM194 877h42v-96h-42v96z" />
    <glyph glyph-name="Eth" unicode="&#xd0;" horiz-adv-x="702" 
d="M96 725h169q91 0 160 -18t123 -58t82.5 -112t28.5 -174t-28.5 -174.5t-82.5 -112.5t-123 -58t-160 -18h-169v352h-92v38h92v335zM615 363q0 82 -20.5 142t-52.5 94.5t-81 55t-95 27t-105 6.5h-124v-298h169v-38h-169v-314h124q59 0 105 6.5t95 27t81 55t52.5 94.5
t20.5 142z" />
    <glyph glyph-name="Ntilde" unicode="&#xd1;" horiz-adv-x="722" 
d="M636 0h-55l-454 674v-674h-41v725h55l454 -674v674h41v-725zM454 818q44 0 56 58h34q-17 -94 -89 -94q-30 0 -76.5 30t-70.5 30q-43 0 -55 -60h-34q7 45 31 69.5t58 24.5q32 0 78 -29t68 -29z" />
    <glyph glyph-name="Ograve" unicode="&#xd2;" horiz-adv-x="745" 
d="M86 363q0 -157 80 -247t206 -90q127 0 207 90t80 247t-80 246.5t-207 89.5q-126 0 -206 -89.5t-80 -246.5zM703 363q0 -170 -90 -273t-241 -103q-152 0 -241 104.5t-89 271.5t89 271t241 104q151 0 241 -103t90 -272zM350 773l-144 113h63l124 -113h-43z" />
    <glyph glyph-name="Oacute" unicode="&#xd3;" horiz-adv-x="745" 
d="M86 363q0 -157 80 -247t206 -90q127 0 207 90t80 247t-80 246.5t-207 89.5q-126 0 -206 -89.5t-80 -246.5zM703 363q0 -170 -90 -273t-241 -103q-152 0 -241 104.5t-89 271.5t89 271t241 104q151 0 241 -103t90 -272zM537 886l-144 -113h-43l124 113h63z" />
    <glyph glyph-name="Ocircumflex" unicode="&#xd4;" horiz-adv-x="745" 
d="M86 363q0 -157 80 -247t206 -90q127 0 207 90t80 247t-80 246.5t-207 89.5q-126 0 -206 -89.5t-80 -246.5zM703 363q0 -170 -90 -273t-241 -103q-152 0 -241 104.5t-89 271.5t89 271t241 104q151 0 241 -103t90 -272zM398 886l137 -113h-47l-116 83l-115 -83h-47l139 113
h49z" />
    <glyph glyph-name="Otilde" unicode="&#xd5;" horiz-adv-x="745" 
d="M86 363q0 -157 80 -247t206 -90q127 0 207 90t80 247t-80 246.5t-207 89.5q-126 0 -206 -89.5t-80 -246.5zM703 363q0 -170 -90 -273t-241 -103q-152 0 -241 104.5t-89 271.5t89 271t241 104q151 0 241 -103t90 -272zM445 818q44 0 56 58h34q-17 -94 -89 -94
q-30 0 -76.5 30t-70.5 30q-43 0 -55 -60h-34q7 45 31 69.5t58 24.5q32 0 78 -29t68 -29z" />
    <glyph glyph-name="Odieresis" unicode="&#xd6;" horiz-adv-x="745" 
d="M86 363q0 -157 80 -247t206 -90q127 0 207 90t80 247t-80 246.5t-207 89.5q-126 0 -206 -89.5t-80 -246.5zM703 363q0 -170 -90 -273t-241 -103q-152 0 -241 104.5t-89 271.5t89 271t241 104q151 0 241 -103t90 -272zM243 877h41v-96h-41v96zM459 877h42v-96h-42v96z" />
    <glyph glyph-name="multiply" unicode="&#xd7;" horiz-adv-x="678" 
d="M568 69l-28 -28l-201 200l-200 -200l-28 28l200 200l-200 201l28 28l200 -201l201 201l28 -28l-201 -201z" />
    <glyph glyph-name="Oslash" unicode="&#xd8;" horiz-adv-x="745" 
d="M703 363q0 -170 -90 -273t-241 -103q-138 0 -226 88l-66 -77l-26 24l68 80q-80 103 -80 261q0 167 89 271t241 104q133 0 221 -83l64 75l27 -23l-66 -78q85 -100 85 -266zM659 363q0 142 -70 233l-416 -488q76 -82 199 -82q127 0 207 90t80 247zM86 363q0 -139 65 -228
l415 488q-79 76 -194 76q-126 0 -206 -89.5t-80 -246.5z" />
    <glyph glyph-name="Ugrave" unicode="&#xd9;" horiz-adv-x="704" 
d="M352 -13q-147 0 -212 72t-65 235v431h41v-438q0 -134 55 -197.5t181 -63.5t181 63.5t55 197.5v438h41v-431q0 -163 -65 -235t-212 -72zM360 773l-144 113h63l124 -113h-43z" />
    <glyph glyph-name="Uacute" unicode="&#xda;" horiz-adv-x="704" 
d="M352 -13q-147 0 -212 72t-65 235v431h41v-438q0 -134 55 -197.5t181 -63.5t181 63.5t55 197.5v438h41v-431q0 -163 -65 -235t-212 -72zM497 886l-144 -113h-43l124 113h63z" />
    <glyph glyph-name="Ucircumflex" unicode="&#xdb;" horiz-adv-x="704" 
d="M352 -13q-147 0 -212 72t-65 235v431h41v-438q0 -134 55 -197.5t181 -63.5t181 63.5t55 197.5v438h41v-431q0 -163 -65 -235t-212 -72zM378 886l137 -113h-47l-116 83l-115 -83h-47l139 113h49z" />
    <glyph glyph-name="Udieresis" unicode="&#xdc;" horiz-adv-x="704" 
d="M352 -13q-147 0 -212 72t-65 235v431h41v-438q0 -134 55 -197.5t181 -63.5t181 63.5t55 197.5v438h41v-431q0 -163 -65 -235t-212 -72zM223 877h41v-96h-41v96zM439 877h42v-96h-42v96z" />
    <glyph glyph-name="Yacute" unicode="&#xdd;" horiz-adv-x="565" 
d="M0 725h46l234 -407l238 407h47l-265 -451v-274h-41v275zM436 886l-144 -113h-43l124 113h63z" />
    <glyph glyph-name="Thorn" unicode="&#xde;" horiz-adv-x="581" 
d="M127 581h157q141 0 216.5 -46.5t75.5 -162.5q0 -49 -14 -85.5t-39 -59.5t-62.5 -37t-80 -19.5t-96.5 -5.5h-157v-165h-41v725h41v-144zM288 542h-161v-339h161q56 0 96.5 6.5t76 23.5t54 52t18.5 87t-18.5 87t-54 52.5t-76 24t-96.5 6.5z" />
    <glyph glyph-name="germandbls" unicode="&#xdf;" horiz-adv-x="625" 
d="M121 0h-39v495q0 122 48 176q56 67 184 67q95 0 153 -45t58 -122q0 -64 -32 -106t-87 -58q72 -11 123 -62t51 -141q0 -112 -73 -164.5t-186 -52.5q-59 0 -99 9l7 40q46 -10 96 -10q59 0 104.5 15t77 56t31.5 105q0 89 -62 136t-155 47h-6v38h6q76 0 119.5 39t43.5 104
q0 63 -46.5 100t-123.5 37q-103 0 -150 -52q-43 -48 -43 -164v-487z" />
    <glyph glyph-name="agrave" unicode="&#xe0;" horiz-adv-x="539" 
d="M438 0l-4 104q-52 -117 -208 -117q-75 0 -127.5 38.5t-52.5 104.5q0 38 16 66t44 47.5t79 34t106.5 24t140.5 20.5v31q0 95 -44 128.5t-119 33.5q-76 0 -117 -37t-48 -96h-42q8 74 64 121.5t144 47.5q97 0 149 -44.5t52 -153.5v-42q0 -15 -0.5 -44.5t-0.5 -43.5v-38
q0 -93 6 -185h-38zM434 232v54q-197 -22 -271.5 -54.5t-74.5 -99.5q0 -50 41.5 -79.5t105.5 -29.5q85 0 142 50t57 159zM252 609l-130 116h58l111 -116h-39z" />
    <glyph glyph-name="aacute" unicode="&#xe1;" horiz-adv-x="539" 
d="M438 0l-4 104q-52 -117 -208 -117q-75 0 -127.5 38.5t-52.5 104.5q0 38 16 66t44 47.5t79 34t106.5 24t140.5 20.5v31q0 95 -44 128.5t-119 33.5q-76 0 -117 -37t-48 -96h-42q8 74 64 121.5t144 47.5q97 0 149 -44.5t52 -153.5v-42q0 -15 -0.5 -44.5t-0.5 -43.5v-38
q0 -93 6 -185h-38zM434 232v54q-197 -22 -271.5 -54.5t-74.5 -99.5q0 -50 41.5 -79.5t105.5 -29.5q85 0 142 50t57 159zM410 725l-130 -116h-39l111 116h58z" />
    <glyph glyph-name="acircumflex" unicode="&#xe2;" horiz-adv-x="539" 
d="M438 0l-4 104q-52 -117 -208 -117q-75 0 -127.5 38.5t-52.5 104.5q0 38 16 66t44 47.5t79 34t106.5 24t140.5 20.5v31q0 95 -44 128.5t-119 33.5q-76 0 -117 -37t-48 -96h-42q8 74 64 121.5t144 47.5q97 0 149 -44.5t52 -153.5v-42q0 -15 -0.5 -44.5t-0.5 -43.5v-38
q0 -93 6 -185h-38zM434 232v54q-197 -22 -271.5 -54.5t-74.5 -99.5q0 -50 41.5 -79.5t105.5 -29.5q85 0 142 50t57 159zM295 725l137 -116h-39l-117 82l-118 -82h-39l138 116h38z" />
    <glyph glyph-name="atilde" unicode="&#xe3;" horiz-adv-x="539" 
d="M438 0l-4 104q-52 -117 -208 -117q-75 0 -127.5 38.5t-52.5 104.5q0 38 16 66t44 47.5t79 34t106.5 24t140.5 20.5v31q0 95 -44 128.5t-119 33.5q-76 0 -117 -37t-48 -96h-42q8 74 64 121.5t144 47.5q97 0 149 -44.5t52 -153.5v-42q0 -15 -0.5 -44.5t-0.5 -43.5v-38
q0 -93 6 -185h-38zM434 232v54q-197 -22 -271.5 -54.5t-74.5 -99.5q0 -50 41.5 -79.5t105.5 -29.5q85 0 142 50t57 159zM346 660q46 0 56 58h35q-17 -94 -89 -94q-31 0 -77.5 29.5t-69.5 29.5q-43 0 -54 -59h-36q7 44 31 69t58 25q33 0 79 -29t67 -29z" />
    <glyph glyph-name="adieresis" unicode="&#xe4;" horiz-adv-x="539" 
d="M438 0l-4 104q-52 -117 -208 -117q-75 0 -127.5 38.5t-52.5 104.5q0 38 16 66t44 47.5t79 34t106.5 24t140.5 20.5v31q0 95 -44 128.5t-119 33.5q-76 0 -117 -37t-48 -96h-42q8 74 64 121.5t144 47.5q97 0 149 -44.5t52 -153.5v-42q0 -15 -0.5 -44.5t-0.5 -43.5v-38
q0 -93 6 -185h-38zM434 232v54q-197 -22 -271.5 -54.5t-74.5 -99.5q0 -50 41.5 -79.5t105.5 -29.5q85 0 142 50t57 159zM142 629v96h39v-96h-39zM360 725h40v-96h-40v96z" />
    <glyph glyph-name="aring" unicode="&#xe5;" horiz-adv-x="539" 
d="M438 0l-4 104q-52 -117 -208 -117q-75 0 -127.5 38.5t-52.5 104.5q0 38 16 66t44 47.5t79 34t106.5 24t140.5 20.5v31q0 95 -44 128.5t-119 33.5q-76 0 -117 -37t-48 -96h-42q8 74 64 121.5t144 47.5q97 0 149 -44.5t52 -153.5v-42q0 -15 -0.5 -44.5t-0.5 -43.5v-38
q0 -93 6 -185h-38zM434 232v54q-197 -22 -271.5 -54.5t-74.5 -99.5q0 -50 41.5 -79.5t105.5 -29.5q85 0 142 50t57 159zM277 760q36 0 61 -23.5t25 -58.5q0 -36 -24.5 -59t-61.5 -23t-62 23t-25 59q0 35 25.5 58.5t61.5 23.5zM277 733q-23 0 -39.5 -15.5t-16.5 -39.5
t16.5 -39.5t39.5 -15.5q22 0 38.5 15.5t16.5 39.5t-16.5 39.5t-38.5 15.5z" />
    <glyph glyph-name="ae" unicode="&#xe6;" horiz-adv-x="954" 
d="M676 -13q-84 0 -141 40.5t-82 114.5q-49 -155 -227 -155q-75 0 -127.5 38.5t-52.5 104.5q0 32 9.5 56t33.5 42.5t51 31t76.5 24t95 19t120.5 18.5v32q0 95 -44 128.5t-119 33.5q-77 0 -118.5 -37.5t-47.5 -95.5h-41q8 74 64 121.5t144 47.5q164 0 190 -137
q62 133 213 133q110 0 175.5 -79t61.5 -204l-443 -3q2 -114 62 -176t149 -62q149 0 184 135h40q-17 -81 -76.5 -126t-149.5 -45zM672 512q-88 0 -142.5 -56.5t-61.5 -155.5h400q0 87 -53.5 149.5t-142.5 62.5zM434 232v53q-201 -27 -273.5 -58t-72.5 -96q0 -51 41 -79.5
t106 -28.5q85 0 142 50t57 159z" />
    <glyph glyph-name="ccedilla" unicode="&#xe7;" horiz-adv-x="546" 
d="M287 547q87 0 146.5 -51t74.5 -130h-40q-15 68 -64 106.5t-120 38.5q-89 0 -143.5 -65.5t-54.5 -178.5q0 -120 56 -182t141 -62q74 0 124.5 40t62.5 104h41q-17 -83 -78 -131.5t-151 -48.5q-112 0 -174.5 76t-62.5 203q0 128 64 204.5t178 76.5zM196 -179l10 29
q24 -11 55 -11q63 0 63 42q0 39 -51 39q-25 0 -43 -9l-14 14l48 76h30l-33 -56q13 3 28 3q33 0 52.5 -17t19.5 -47q0 -37 -28.5 -55.5t-67.5 -18.5q-36 0 -69 11z" />
    <glyph glyph-name="egrave" unicode="&#xe8;" horiz-adv-x="574" 
d="M295 -13q-115 0 -182.5 77t-67.5 204q0 128 67.5 203.5t179.5 75.5q110 0 175.5 -78.5t61.5 -203.5h-443q0 -117 59.5 -179.5t151.5 -62.5q149 0 184 135h40q-17 -81 -76.5 -126t-149.5 -45zM291 512q-88 0 -142.5 -56.5t-61.5 -155.5h400q0 87 -53.5 149.5t-142.5 62.5z
M268 609l-130 116h58l111 -116h-39z" />
    <glyph glyph-name="eacute" unicode="&#xe9;" horiz-adv-x="574" 
d="M295 -13q-115 0 -182.5 77t-67.5 204q0 128 67.5 203.5t179.5 75.5q110 0 175.5 -78.5t61.5 -203.5h-443q0 -117 59.5 -179.5t151.5 -62.5q149 0 184 135h40q-17 -81 -76.5 -126t-149.5 -45zM291 512q-88 0 -142.5 -56.5t-61.5 -155.5h400q0 87 -53.5 149.5t-142.5 62.5z
M436 725l-130 -116h-39l111 116h58z" />
    <glyph glyph-name="ecircumflex" unicode="&#xea;" horiz-adv-x="574" 
d="M295 -13q-115 0 -182.5 77t-67.5 204q0 128 67.5 203.5t179.5 75.5q110 0 175.5 -78.5t61.5 -203.5h-443q0 -117 59.5 -179.5t151.5 -62.5q149 0 184 135h40q-17 -81 -76.5 -126t-149.5 -45zM291 512q-88 0 -142.5 -56.5t-61.5 -155.5h400q0 87 -53.5 149.5t-142.5 62.5z
M311 725l137 -116h-39l-117 82l-118 -82h-39l138 116h38z" />
    <glyph glyph-name="edieresis" unicode="&#xeb;" horiz-adv-x="574" 
d="M295 -13q-115 0 -182.5 77t-67.5 204q0 128 67.5 203.5t179.5 75.5q110 0 175.5 -78.5t61.5 -203.5h-443q0 -117 59.5 -179.5t151.5 -62.5q149 0 184 135h40q-17 -81 -76.5 -126t-149.5 -45zM291 512q-88 0 -142.5 -56.5t-61.5 -155.5h400q0 87 -53.5 149.5t-142.5 62.5z
M158 629v96h39v-96h-39zM376 725h40v-96h-40v96z" />
    <glyph glyph-name="igrave" unicode="&#xec;" horiz-adv-x="203" 
d="M82 538h39v-538h-39v538zM83 609l-130 116h58l111 -116h-39z" />
    <glyph glyph-name="iacute" unicode="&#xed;" horiz-adv-x="203" 
d="M82 538h39v-538h-39v538zM250 725l-130 -116h-39l111 116h58z" />
    <glyph glyph-name="icircumflex" unicode="&#xee;" horiz-adv-x="203" 
d="M82 538h39v-538h-39v538zM122 725l137 -116h-39l-117 82l-118 -82h-39l138 116h38z" />
    <glyph glyph-name="idieresis" unicode="&#xef;" horiz-adv-x="203" 
d="M82 538h39v-538h-39v538zM-27 629v96h39v-96h-39zM191 725h40v-96h-40v96z" />
    <glyph glyph-name="eth" unicode="&#xf0;" horiz-adv-x="546" 
d="M306 681l92 57l33 -16l-98 -61q174 -132 174 -372q0 -149 -64.5 -225.5t-169.5 -76.5q-101 0 -164.5 74t-63.5 202q0 126 64 199.5t165 73.5q117 0 177 -103l1 1q-38 123 -153 206l-94 -57l-32 15l99 61q-43 26 -89 47l18 32q57 -26 105 -57zM273 23q80 0 136 60t56 180
t-55.5 178.5t-135.5 58.5q-81 0 -134.5 -63.5t-53.5 -173.5q0 -112 52.5 -176t134.5 -64z" />
    <glyph glyph-name="ntilde" unicode="&#xf1;" horiz-adv-x="558" 
d="M121 538v-124q18 55 65.5 94t124.5 39q180 0 180 -202v-345h-39v332q0 86 -33 132.5t-116 46.5q-85 0 -133.5 -67t-48.5 -180v-264h-39v538h39zM364 660q46 0 56 58h35q-17 -94 -89 -94q-31 0 -77.5 29.5t-69.5 29.5q-43 0 -54 -59h-36q7 44 31 69t58 25q33 0 79 -29
t67 -29z" />
    <glyph glyph-name="ograve" unicode="&#xf2;" horiz-adv-x="571" 
d="M86 267q0 -119 54.5 -181.5t144.5 -62.5t144.5 62.5t54.5 181.5t-54.5 181.5t-144.5 62.5t-144.5 -62.5t-54.5 -181.5zM45 267q0 136 67.5 208t172.5 72t173 -72t68 -208t-67.5 -208t-173.5 -72q-105 0 -172.5 72t-67.5 208zM266 609l-130 116h58l111 -116h-39z" />
    <glyph glyph-name="oacute" unicode="&#xf3;" horiz-adv-x="571" 
d="M86 267q0 -119 54.5 -181.5t144.5 -62.5t144.5 62.5t54.5 181.5t-54.5 181.5t-144.5 62.5t-144.5 -62.5t-54.5 -181.5zM45 267q0 136 67.5 208t172.5 72t173 -72t68 -208t-67.5 -208t-173.5 -72q-105 0 -172.5 72t-67.5 208zM434 725l-130 -116h-39l111 116h58z" />
    <glyph glyph-name="ocircumflex" unicode="&#xf4;" horiz-adv-x="571" 
d="M86 267q0 -119 54.5 -181.5t144.5 -62.5t144.5 62.5t54.5 181.5t-54.5 181.5t-144.5 62.5t-144.5 -62.5t-54.5 -181.5zM45 267q0 136 67.5 208t172.5 72t173 -72t68 -208t-67.5 -208t-173.5 -72q-105 0 -172.5 72t-67.5 208zM305 725l137 -116h-39l-117 82l-118 -82h-39
l138 116h38z" />
    <glyph glyph-name="otilde" unicode="&#xf5;" horiz-adv-x="571" 
d="M86 267q0 -119 54.5 -181.5t144.5 -62.5t144.5 62.5t54.5 181.5t-54.5 181.5t-144.5 62.5t-144.5 -62.5t-54.5 -181.5zM45 267q0 136 67.5 208t172.5 72t173 -72t68 -208t-67.5 -208t-173.5 -72q-105 0 -172.5 72t-67.5 208zM353 660q46 0 56 58h35q-17 -94 -89 -94
q-31 0 -77.5 29.5t-69.5 29.5q-43 0 -54 -59h-36q7 44 31 69t58 25q33 0 79 -29t67 -29z" />
    <glyph glyph-name="odieresis" unicode="&#xf6;" horiz-adv-x="571" 
d="M86 267q0 -119 54.5 -181.5t144.5 -62.5t144.5 62.5t54.5 181.5t-54.5 181.5t-144.5 62.5t-144.5 -62.5t-54.5 -181.5zM45 267q0 136 67.5 208t172.5 72t173 -72t68 -208t-67.5 -208t-173.5 -72q-105 0 -172.5 72t-67.5 208zM156 629v96h39v-96h-39zM374 725h40v-96h-40
v96z" />
    <glyph glyph-name="divide" unicode="&#xf7;" horiz-adv-x="678" 
d="M315 61v94h50v-94h-50zM315 380v93h50v-93h-50zM600 252h-522v37h522v-37z" />
    <glyph glyph-name="oslash" unicode="&#xf8;" horiz-adv-x="571" 
d="M45 267q0 136 67.5 208t172.5 72q98 0 163 -62l45 53l27 -22l-49 -57q55 -74 55 -192q0 -136 -67.5 -208t-173.5 -72q-97 0 -162 60l-50 -59l-26 23l53 63q-55 71 -55 193zM86 267q0 -99 40 -163l297 351q-53 56 -138 56q-90 0 -144.5 -62.5t-54.5 -181.5zM484 267
q0 96 -40 160l-296 -350q52 -54 137 -54q90 0 144.5 62.5t54.5 181.5z" />
    <glyph glyph-name="ugrave" unicode="&#xf9;" horiz-adv-x="546" 
d="M425 0v120q-19 -56 -63.5 -94.5t-119.5 -38.5q-175 0 -175 202v349h39v-336q0 -85 32 -132t112 -47q83 0 129 67t46 180v268h39v-538h-39zM267 609l-130 116h58l111 -116h-39z" />
    <glyph glyph-name="uacute" unicode="&#xfa;" horiz-adv-x="546" 
d="M425 0v120q-19 -56 -63.5 -94.5t-119.5 -38.5q-175 0 -175 202v349h39v-336q0 -85 32 -132t112 -47q83 0 129 67t46 180v268h39v-538h-39zM415 725l-130 -116h-39l111 116h58z" />
    <glyph glyph-name="ucircumflex" unicode="&#xfb;" horiz-adv-x="546" 
d="M425 0v120q-19 -56 -63.5 -94.5t-119.5 -38.5q-175 0 -175 202v349h39v-336q0 -85 32 -132t112 -47q83 0 129 67t46 180v268h39v-538h-39zM286 725l137 -116h-39l-117 82l-118 -82h-39l138 116h38z" />
    <glyph glyph-name="udieresis" unicode="&#xfc;" horiz-adv-x="546" 
d="M425 0v120q-19 -56 -63.5 -94.5t-119.5 -38.5q-175 0 -175 202v349h39v-336q0 -85 32 -132t112 -47q83 0 129 67t46 180v268h39v-538h-39zM137 629v96h39v-96h-39zM355 725h40v-96h-40v96z" />
    <glyph glyph-name="yacute" unicode="&#xfd;" horiz-adv-x="471" 
d="M88 -175h-30v35h31q47 0 66 14.5t44 77.5l19 49l-213 537h44l188 -485l185 485h44l-231 -591q-31 -77 -57 -99.5t-90 -22.5zM379 725l-130 -116h-39l111 116h58z" />
    <glyph glyph-name="thorn" unicode="&#xfe;" horiz-adv-x="588" 
d="M121 725v-306q25 60 75.5 94t118.5 34q99 0 163.5 -75t64.5 -205t-64.5 -205t-163.5 -75q-68 0 -118.5 34t-75.5 94v-290h-39v900h39zM118 267q0 -122 57 -183t135 -61q83 0 137.5 65t54.5 179t-54.5 179t-137.5 65q-78 0 -135 -61t-57 -183z" />
    <glyph glyph-name="ydieresis" unicode="&#xff;" horiz-adv-x="471" 
d="M88 -175h-30v35h31q47 0 66 14.5t44 77.5l19 49l-213 537h44l188 -485l185 485h44l-231 -591q-31 -77 -57 -99.5t-90 -22.5zM115 629v96h39v-96h-39zM333 725h40v-96h-40v96z" />
    <glyph glyph-name="Amacron" unicode="&#x100;" horiz-adv-x="624" 
d="M10 0l280 725h43l281 -725h-44l-76 197h-366l-75 -197h-43zM311 676l-168 -440h336zM447 813h-271v38h271v-38z" />
    <glyph glyph-name="amacron" unicode="&#x101;" horiz-adv-x="539" 
d="M438 0l-4 104q-52 -117 -208 -117q-75 0 -127.5 38.5t-52.5 104.5q0 38 16 66t44 47.5t79 34t106.5 24t140.5 20.5v31q0 95 -44 128.5t-119 33.5q-76 0 -117 -37t-48 -96h-42q8 74 64 121.5t144 47.5q97 0 149 -44.5t52 -153.5v-42q0 -15 -0.5 -44.5t-0.5 -43.5v-38
q0 -93 6 -185h-38zM434 232v54q-197 -22 -271.5 -54.5t-74.5 -99.5q0 -50 41.5 -79.5t105.5 -29.5q85 0 142 50t57 159zM415 650h-261v34h261v-34z" />
    <glyph glyph-name="Abreve" unicode="&#x102;" horiz-adv-x="624" 
d="M10 0l280 725h43l281 -725h-44l-76 197h-366l-75 -197h-43zM311 676l-168 -440h336zM417 886h37q-4 -54 -42 -85.5t-101 -31.5q-60 0 -98.5 31.5t-42.5 85.5h37q5 -44 34 -64.5t71 -20.5t71 20.5t34 64.5z" />
    <glyph glyph-name="abreve" unicode="&#x103;" horiz-adv-x="539" 
d="M438 0l-4 104q-52 -117 -208 -117q-75 0 -127.5 38.5t-52.5 104.5q0 38 16 66t44 47.5t79 34t106.5 24t140.5 20.5v31q0 95 -44 128.5t-119 33.5q-76 0 -117 -37t-48 -96h-42q8 74 64 121.5t144 47.5q97 0 149 -44.5t52 -153.5v-42q0 -15 -0.5 -44.5t-0.5 -43.5v-38
q0 -93 6 -185h-38zM434 232v54q-197 -22 -271.5 -54.5t-74.5 -99.5q0 -50 41.5 -79.5t105.5 -29.5q85 0 142 50t57 159zM385 725h34q-11 -119 -142 -119q-65 0 -101 31t-40 88h36q5 -46 30.5 -66.5t74.5 -20.5t75.5 20.5t32.5 66.5z" />
    <glyph glyph-name="Aogonek" unicode="&#x104;" horiz-adv-x="624" 
d="M10 0l280 725h43l281 -725q-41 -20 -67.5 -47t-26.5 -55q0 -23 17.5 -36.5t44.5 -13.5q23 0 30 3v-34q-15 -5 -45 -5q-36 0 -63.5 23.5t-27.5 60.5q0 31 27.5 59t66.5 45l-76 197h-366l-75 -197h-43zM311 676l-168 -440h336z" />
    <glyph glyph-name="aogonek" unicode="&#x105;" horiz-adv-x="539" 
d="M438 0l-4 104q-52 -117 -208 -117q-75 0 -127.5 38.5t-52.5 104.5q0 38 16 66t44 47.5t79 34t106.5 24t140.5 20.5v31q0 95 -44 128.5t-119 33.5q-76 0 -117 -37t-48 -96h-42q8 74 64 121.5t144 47.5q97 0 149 -44.5t52 -153.5v-42q0 -15 -0.5 -44.5t-0.5 -43.5v-38
q0 -93 6 -185q-42 -20 -69 -47t-27 -55q0 -23 19 -37.5t46 -14.5q18 0 30 5v-34q-15 -5 -45 -5q-36 0 -63.5 23.5t-27.5 60.5q0 32 31.5 63t67.5 41zM434 232v54q-197 -22 -271.5 -54.5t-74.5 -99.5q0 -50 41.5 -79.5t105.5 -29.5q85 0 142 50t57 159z" />
    <glyph glyph-name="Cacute" unicode="&#x106;" horiz-adv-x="702" 
d="M626 216h43q-24 -109 -104.5 -169t-199.5 -60q-152 0 -237.5 105t-85.5 271t86 270.5t239 104.5q117 0 196 -60t103 -169h-43q-21 94 -90.5 142t-166.5 48q-126 0 -203 -91t-77 -245q0 -153 76.5 -245t202.5 -92q104 0 172.5 50t88.5 140zM520 886l-144 -113h-43l124 113
h63z" />
    <glyph glyph-name="cacute" unicode="&#x107;" horiz-adv-x="546" 
d="M287 547q87 0 146.5 -51t74.5 -130h-40q-15 68 -64 106.5t-120 38.5q-89 0 -143.5 -65.5t-54.5 -178.5q0 -120 56 -182t141 -62q74 0 124.5 40t62.5 104h41q-17 -83 -78 -131.5t-151 -48.5q-112 0 -174.5 76t-62.5 203q0 128 64 204.5t178 76.5zM427 725l-130 -116h-39
l111 116h58z" />
    <glyph glyph-name="Ccircumflex" unicode="&#x108;" horiz-adv-x="702" 
d="M626 216h43q-24 -109 -104.5 -169t-199.5 -60q-152 0 -237.5 105t-85.5 271t86 270.5t239 104.5q117 0 196 -60t103 -169h-43q-21 94 -90.5 142t-166.5 48q-126 0 -203 -91t-77 -245q0 -153 76.5 -245t202.5 -92q104 0 172.5 50t88.5 140zM391 886l137 -113h-47l-116 83
l-115 -83h-47l139 113h49z" />
    <glyph glyph-name="ccircumflex" unicode="&#x109;" horiz-adv-x="546" 
d="M287 547q87 0 146.5 -51t74.5 -130h-40q-15 68 -64 106.5t-120 38.5q-89 0 -143.5 -65.5t-54.5 -178.5q0 -120 56 -182t141 -62q74 0 124.5 40t62.5 104h41q-17 -83 -78 -131.5t-151 -48.5q-112 0 -174.5 76t-62.5 203q0 128 64 204.5t178 76.5zM311 725l137 -116h-39
l-117 82l-118 -82h-39l138 116h38z" />
    <glyph glyph-name="Cdotaccent" unicode="&#x10a;" horiz-adv-x="702" 
d="M626 216h43q-24 -109 -104.5 -169t-199.5 -60q-152 0 -237.5 105t-85.5 271t86 270.5t239 104.5q117 0 196 -60t103 -169h-43q-21 94 -90.5 142t-166.5 48q-126 0 -203 -91t-77 -245q0 -153 76.5 -245t202.5 -92q104 0 172.5 50t88.5 140zM345 877h41v-96h-41v96z" />
    <glyph glyph-name="cdotaccent" unicode="&#x10b;" horiz-adv-x="546" 
d="M287 547q87 0 146.5 -51t74.5 -130h-40q-15 68 -64 106.5t-120 38.5q-89 0 -143.5 -65.5t-54.5 -178.5q0 -120 56 -182t141 -62q74 0 124.5 40t62.5 104h41q-17 -83 -78 -131.5t-151 -48.5q-112 0 -174.5 76t-62.5 203q0 128 64 204.5t178 76.5zM271 725h39v-96h-39v96z
" />
    <glyph glyph-name="Ccaron" unicode="&#x10c;" horiz-adv-x="702" 
d="M626 216h43q-24 -109 -104.5 -169t-199.5 -60q-152 0 -237.5 105t-85.5 271t86 270.5t239 104.5q117 0 196 -60t103 -169h-43q-21 94 -90.5 142t-166.5 48q-126 0 -203 -91t-77 -245q0 -153 76.5 -245t202.5 -92q104 0 172.5 50t88.5 140zM341 773l-138 113h47l115 -83
l116 83h47l-139 -113h-48z" />
    <glyph glyph-name="ccaron" unicode="&#x10d;" horiz-adv-x="546" 
d="M287 547q87 0 146.5 -51t74.5 -130h-40q-15 68 -64 106.5t-120 38.5q-89 0 -143.5 -65.5t-54.5 -178.5q0 -120 56 -182t141 -62q74 0 124.5 40t62.5 104h41q-17 -83 -78 -131.5t-151 -48.5q-112 0 -174.5 76t-62.5 203q0 128 64 204.5t178 76.5zM271 609l-137 116h39
l117 -82l118 82h39l-138 -116h-38z" />
    <glyph glyph-name="Dcaron" unicode="&#x10e;" horiz-adv-x="691" 
d="M605 363q0 82 -20.5 142t-52.5 94.5t-81 55t-95 27t-105 6.5h-124v-650h124q59 0 105 6.5t95 27t81 55t52.5 94.5t20.5 142zM86 725h169q91 0 160 -18t123 -58t82.5 -112t28.5 -174t-28.5 -174.5t-82.5 -112.5t-123 -58t-160 -18h-169v725zM308 773l-138 113h47l115 -83
l116 83h47l-139 -113h-48z" />
    <glyph glyph-name="dcaron" unicode="&#x10f;" horiz-adv-x="599" 
d="M467 419v306h39v-725h-39v115q-25 -60 -75.5 -94t-118.5 -34q-99 0 -163.5 75t-64.5 205t64.5 205t163.5 75q68 0 118.5 -34t75.5 -94zM471 267q0 122 -57 183t-136 61q-83 0 -137.5 -65t-54.5 -179t54.5 -179t137.5 -65q79 0 136 61t57 183zM624 725l-48 -170h-26
l29 170h45z" />
    <glyph glyph-name="Dcroat" unicode="&#x110;" horiz-adv-x="702" 
d="M96 725h169q91 0 160 -18t123 -58t82.5 -112t28.5 -174t-28.5 -174.5t-82.5 -112.5t-123 -58t-160 -18h-169v352h-92v38h92v335zM615 363q0 82 -20.5 142t-52.5 94.5t-81 55t-95 27t-105 6.5h-124v-298h169v-38h-169v-314h124q59 0 105 6.5t95 27t81 55t52.5 94.5
t20.5 142z" />
    <glyph glyph-name="dcroat" unicode="&#x111;" horiz-adv-x="589" 
d="M298 602v34h169v89h39v-89h77v-34h-77v-602h-39v115q-25 -60 -75.5 -94t-118.5 -34q-99 0 -163.5 75t-64.5 205t64.5 205t163.5 75q68 0 118.5 -34t75.5 -94v183h-169zM471 267q0 122 -57 183t-136 61q-83 0 -137.5 -65t-54.5 -179t54.5 -179t137.5 -65q79 0 136 61
t57 183z" />
    <glyph glyph-name="Emacron" unicode="&#x112;" horiz-adv-x="576" 
d="M86 0v725h454v-39h-413v-291h388v-38h-388v-318h413v-39h-454zM449 813h-271v38h271v-38z" />
    <glyph glyph-name="emacron" unicode="&#x113;" horiz-adv-x="574" 
d="M295 -13q-115 0 -182.5 77t-67.5 204q0 128 67.5 203.5t179.5 75.5q110 0 175.5 -78.5t61.5 -203.5h-443q0 -117 59.5 -179.5t151.5 -62.5q149 0 184 135h40q-17 -81 -76.5 -126t-149.5 -45zM291 512q-88 0 -142.5 -56.5t-61.5 -155.5h400q0 87 -53.5 149.5t-142.5 62.5z
M428 650h-261v34h261v-34z" />
    <glyph glyph-name="Ebreve" unicode="&#x114;" horiz-adv-x="576" 
d="M86 0v725h454v-39h-413v-291h388v-38h-388v-318h413v-39h-454zM423 886h37q-4 -54 -42 -85.5t-101 -31.5q-60 0 -98.5 31.5t-42.5 85.5h37q5 -44 34 -64.5t71 -20.5t71 20.5t34 64.5z" />
    <glyph glyph-name="ebreve" unicode="&#x115;" horiz-adv-x="574" 
d="M295 -13q-115 0 -182.5 77t-67.5 204q0 128 67.5 203.5t179.5 75.5q110 0 175.5 -78.5t61.5 -203.5h-443q0 -117 59.5 -179.5t151.5 -62.5q149 0 184 135h40q-17 -81 -76.5 -126t-149.5 -45zM291 512q-88 0 -142.5 -56.5t-61.5 -155.5h400q0 87 -53.5 149.5t-142.5 62.5z
M405 725h34q-11 -119 -142 -119q-65 0 -101 31t-40 88h36q5 -46 30.5 -66.5t74.5 -20.5t75.5 20.5t32.5 66.5z" />
    <glyph glyph-name="Edotaccent" unicode="&#x116;" horiz-adv-x="576" 
d="M86 0v725h454v-39h-413v-291h388v-38h-388v-318h413v-39h-454zM293 877h41v-96h-41v96z" />
    <glyph glyph-name="edotaccent" unicode="&#x117;" horiz-adv-x="574" 
d="M295 -13q-115 0 -182.5 77t-67.5 204q0 128 67.5 203.5t179.5 75.5q110 0 175.5 -78.5t61.5 -203.5h-443q0 -117 59.5 -179.5t151.5 -62.5q149 0 184 135h40q-17 -81 -76.5 -126t-149.5 -45zM291 512q-88 0 -142.5 -56.5t-61.5 -155.5h400q0 87 -53.5 149.5t-142.5 62.5z
M274 725h39v-96h-39v96z" />
    <glyph glyph-name="Eogonek" unicode="&#x118;" horiz-adv-x="576" 
d="M86 0v725h454v-39h-413v-291h388v-38h-388v-318h413v-39h-454zM499 0h41q-41 -20 -67.5 -47t-26.5 -55q0 -23 17.5 -36.5t44.5 -13.5q23 0 30 3v-34q-15 -5 -40 -5q-32 0 -64 24.5t-32 59.5q0 31 31 62.5t66 41.5z" />
    <glyph glyph-name="eogonek" unicode="&#x119;" horiz-adv-x="574" 
d="M291 512q-88 0 -142.5 -56.5t-61.5 -155.5h400q0 87 -53.5 149.5t-142.5 62.5zM430 -151v-34q-15 -5 -45 -5q-36 0 -63.5 23.5t-27.5 60.5q0 48 49 97q-17 -4 -48 -4q-115 0 -182.5 77t-67.5 204q0 128 67.5 203.5t179.5 75.5q110 0 175.5 -78.5t61.5 -203.5l-443 1
q0 -117 59.5 -180t151.5 -63q149 0 184 135h40q-22 -96 -100 -143q-42 -25 -64 -58t-22 -61q0 -23 19 -37.5t46 -14.5q18 0 30 5z" />
    <glyph glyph-name="Ecaron" unicode="&#x11a;" horiz-adv-x="576" 
d="M86 0v725h454v-39h-413v-291h388v-38h-388v-318h413v-39h-454zM296 773l-138 113h47l115 -83l116 83h47l-139 -113h-48z" />
    <glyph glyph-name="ecaron" unicode="&#x11b;" horiz-adv-x="574" 
d="M295 -13q-115 0 -182.5 77t-67.5 204q0 128 67.5 203.5t179.5 75.5q110 0 175.5 -78.5t61.5 -203.5h-443q0 -117 59.5 -179.5t151.5 -62.5q149 0 184 135h40q-17 -81 -76.5 -126t-149.5 -45zM291 512q-88 0 -142.5 -56.5t-61.5 -155.5h400q0 87 -53.5 149.5t-142.5 62.5z
M272 609l-137 116h39l117 -82l118 82h39l-138 -116h-38z" />
    <glyph glyph-name="Gcircumflex" unicode="&#x11c;" horiz-adv-x="742" 
d="M369 738q117 0 197 -59t101 -170h-43q-21 94 -90 142t-166 48q-127 0 -204.5 -91.5t-77.5 -244.5t76 -245t202 -92q50 0 94.5 13t83.5 40t62 77t23 117v33h-208v38h248v-344h-38l-1 131q-69 -144 -265 -144q-152 0 -236.5 104.5t-84.5 271.5q0 166 87 270.5t240 104.5z
M391 886l137 -113h-47l-116 83l-115 -83h-47l139 113h49z" />
    <glyph glyph-name="gcircumflex" unicode="&#x11d;" horiz-adv-x="588" 
d="M467 15v121q-25 -60 -75.5 -93.5t-118.5 -33.5q-98 0 -163 73t-65 196q0 122 65 195.5t163 73.5q68 0 118.5 -33.5t75.5 -93.5v118h40v-511q0 -116 -61.5 -165.5t-161.5 -49.5q-87 0 -145.5 43t-66.5 115h41q6 -52 50.5 -87.5t120.5 -35.5q183 0 183 168zM471 278
q0 114 -57.5 173.5t-135.5 59.5q-83 0 -137.5 -62.5t-54.5 -170.5q0 -109 54.5 -171.5t137.5 -62.5q78 0 135.5 59.5t57.5 174.5zM317 725l137 -116h-39l-117 82l-118 -82h-39l138 116h38z" />
    <glyph glyph-name="Gbreve" unicode="&#x11e;" horiz-adv-x="742" 
d="M369 738q117 0 197 -59t101 -170h-43q-21 94 -90 142t-166 48q-127 0 -204.5 -91.5t-77.5 -244.5t76 -245t202 -92q50 0 94.5 13t83.5 40t62 77t23 117v33h-208v38h248v-344h-38l-1 131q-69 -144 -265 -144q-152 0 -236.5 104.5t-84.5 271.5q0 166 87 270.5t240 104.5z
M470 886h37q-4 -54 -42 -85.5t-101 -31.5q-60 0 -98.5 31.5t-42.5 85.5h37q5 -44 34 -64.5t71 -20.5t71 20.5t34 64.5z" />
    <glyph glyph-name="gbreve" unicode="&#x11f;" horiz-adv-x="588" 
d="M467 15v121q-25 -60 -75.5 -93.5t-118.5 -33.5q-98 0 -163 73t-65 196q0 122 65 195.5t163 73.5q68 0 118.5 -33.5t75.5 -93.5v118h40v-511q0 -116 -61.5 -165.5t-161.5 -49.5q-87 0 -145.5 43t-66.5 115h41q6 -52 50.5 -87.5t120.5 -35.5q183 0 183 168zM471 278
q0 114 -57.5 173.5t-135.5 59.5q-83 0 -137.5 -62.5t-54.5 -170.5q0 -109 54.5 -171.5t137.5 -62.5q78 0 135.5 59.5t57.5 174.5zM404 725h34q-11 -119 -142 -119q-65 0 -101 31t-40 88h36q5 -46 30.5 -66.5t74.5 -20.5t75.5 20.5t32.5 66.5z" />
    <glyph glyph-name="Gdotaccent" unicode="&#x120;" horiz-adv-x="742" 
d="M369 738q117 0 197 -59t101 -170h-43q-21 94 -90 142t-166 48q-127 0 -204.5 -91.5t-77.5 -244.5t76 -245t202 -92q50 0 94.5 13t83.5 40t62 77t23 117v33h-208v38h248v-344h-38l-1 131q-69 -144 -265 -144q-152 0 -236.5 104.5t-84.5 271.5q0 166 87 270.5t240 104.5z
M345 877h41v-96h-41v96z" />
    <glyph glyph-name="gdotaccent" unicode="&#x121;" horiz-adv-x="588" 
d="M467 15v121q-25 -60 -75.5 -93.5t-118.5 -33.5q-98 0 -163 73t-65 196q0 122 65 195.5t163 73.5q68 0 118.5 -33.5t75.5 -93.5v118h40v-511q0 -116 -61.5 -165.5t-161.5 -49.5q-87 0 -145.5 43t-66.5 115h41q6 -52 50.5 -87.5t120.5 -35.5q183 0 183 168zM471 278
q0 114 -57.5 173.5t-135.5 59.5q-83 0 -137.5 -62.5t-54.5 -170.5q0 -109 54.5 -171.5t137.5 -62.5q78 0 135.5 59.5t57.5 174.5zM277 725h39v-96h-39v96z" />
    <glyph glyph-name="uni0122" unicode="&#x122;" horiz-adv-x="742" 
d="M369 738q117 0 197 -59t101 -170h-43q-21 94 -90 142t-166 48q-127 0 -204.5 -91.5t-77.5 -244.5t76 -245t202 -92q50 0 94.5 13t83.5 40t62 77t23 117v33h-208v38h248v-344h-38l-1 131q-69 -144 -265 -144q-152 0 -236.5 104.5t-84.5 271.5q0 166 87 270.5t240 104.5z
M335 -49h39v-11q0 -30 -2 -49t-8.5 -39.5t-22 -31t-40.5 -12.5v39q21 5 27.5 24t6.5 68v12z" />
    <glyph glyph-name="uni0123" unicode="&#x123;" horiz-adv-x="588" 
d="M308 627h-39v10q0 30 2 49t9 39.5t22.5 31t39.5 12.5v-39q-22 -4 -28 -23t-6 -68v-12zM467 15v121q-25 -60 -75.5 -93.5t-118.5 -33.5q-98 0 -163 73t-65 196q0 122 65 195.5t163 73.5q68 0 118.5 -33.5t75.5 -93.5v118h40v-511q0 -116 -61.5 -165.5t-161.5 -49.5
q-87 0 -145.5 43t-66.5 115h41q6 -52 50.5 -87.5t120.5 -35.5q183 0 183 168zM471 278q0 114 -57.5 173.5t-135.5 59.5q-83 0 -137.5 -62.5t-54.5 -170.5q0 -109 54.5 -171.5t137.5 -62.5q78 0 135.5 59.5t57.5 174.5z" />
    <glyph glyph-name="Hcircumflex" unicode="&#x124;" horiz-adv-x="710" 
d="M583 725h41v-725h-41v357h-456v-357h-41v725h41v-330h456v330zM381 886l137 -113h-47l-116 83l-115 -83h-47l139 113h49z" />
    <glyph glyph-name="hcircumflex" unicode="&#x125;" horiz-adv-x="558" 
d="M121 725v-311q18 55 65.5 94t124.5 39q180 0 180 -202v-345h-39v332q0 86 -33 132.5t-116 46.5q-85 0 -133.5 -67t-48.5 -180v-264h-39v725h39zM129 886l137 -113h-47l-116 83l-115 -83h-47l139 113h49z" />
    <glyph glyph-name="Hbar" unicode="&#x126;" horiz-adv-x="710" 
d="M583 725h41v-158h56v-38h-56v-529h-41v357h-456v-357h-41v529h-56v38h56v158h41v-158h456v158zM127 395h456v134h-456v-134z" />
    <glyph glyph-name="hbar" unicode="&#x127;" horiz-adv-x="558" 
d="M121 725v-89h164v-34h-164v-188q18 55 65.5 94t124.5 39q180 0 180 -202v-345h-39v332q0 86 -33 132.5t-116 46.5q-85 0 -133.5 -67t-48.5 -180v-264h-39v602h-82v34h82v89h39z" />
    <glyph glyph-name="Itilde" unicode="&#x128;" horiz-adv-x="213" 
d="M127 725v-725h-41v725h41zM180 818q44 0 56 58h34q-17 -94 -89 -94q-30 0 -76.5 30t-70.5 30q-43 0 -55 -60h-34q7 45 31 69.5t58 24.5q32 0 78 -29t68 -29z" />
    <glyph glyph-name="itilde" unicode="&#x129;" horiz-adv-x="203" 
d="M82 538h39v-538h-39v538zM170 660q46 0 56 58h35q-17 -94 -89 -94q-31 0 -77.5 29.5t-69.5 29.5q-43 0 -54 -59h-36q7 44 31 69t58 25q33 0 79 -29t67 -29z" />
    <glyph glyph-name="Imacron" unicode="&#x12a;" horiz-adv-x="213" 
d="M127 725v-725h-41v725h41zM243 813h-271v38h271v-38z" />
    <glyph glyph-name="imacron" unicode="&#x12b;" horiz-adv-x="203" 
d="M82 538h39v-538h-39v538zM233 650h-261v34h261v-34z" />
    <glyph glyph-name="Ibreve" unicode="&#x12c;" horiz-adv-x="213" 
d="M127 725v-725h-41v725h41zM212 886h37q-4 -54 -42 -85.5t-101 -31.5q-60 0 -98.5 31.5t-42.5 85.5h37q5 -44 34 -64.5t71 -20.5t71 20.5t34 64.5z" />
    <glyph glyph-name="ibreve" unicode="&#x12d;" horiz-adv-x="203" 
d="M82 538h39v-538h-39v538zM210 725h34q-11 -119 -142 -119q-65 0 -101 31t-40 88h36q5 -46 30.5 -66.5t74.5 -20.5t75.5 20.5t32.5 66.5z" />
    <glyph glyph-name="Iogonek" unicode="&#x12e;" horiz-adv-x="213" 
d="M127 725v-725h-41v725h41zM87 0h41q-41 -20 -67.5 -47t-26.5 -55q0 -23 17.5 -36.5t44.5 -13.5q23 0 30 3v-34q-15 -5 -40 -5q-32 0 -64 24.5t-32 59.5q0 31 31 62.5t66 41.5z" />
    <glyph glyph-name="iogonek" unicode="&#x12f;" horiz-adv-x="203" 
d="M82 538h39v-538h-1q-39 -19 -66.5 -45.5t-27.5 -56.5q0 -52 65 -52q18 0 30 5v-34q-15 -5 -45 -5q-36 0 -63.5 22.5t-27.5 58.5q0 35 30.5 65.5t66.5 41.5v538zM82 725h39v-96h-39v96z" />
    <glyph glyph-name="Idotaccent" unicode="&#x130;" horiz-adv-x="213" 
d="M127 725v-725h-41v725h41zM86 877h41v-96h-41v96z" />
    <glyph glyph-name="dotlessi" unicode="&#x131;" horiz-adv-x="203" 
d="M82 538h39v-538h-39v538z" />
    <glyph glyph-name="Jcircumflex" unicode="&#x134;" horiz-adv-x="527" 
d="M401 242v483h41v-472q0 -142 -59.5 -204t-156.5 -62q-95 0 -154 59t-61 195h41q0 -215 174 -215q175 0 175 216zM447 886l137 -113h-47l-116 83l-115 -83h-47l139 113h49z" />
    <glyph glyph-name="jcircumflex" unicode="&#x135;" horiz-adv-x="203" 
d="M82 -45v583h39v-586q0 -74 -22.5 -100.5t-90.5 -26.5h-23v35h9q57 0 72.5 18t15.5 77zM122 725l137 -116h-39l-117 82l-118 -82h-39l138 116h38z" />
    <glyph glyph-name="uni0136" unicode="&#x136;" horiz-adv-x="596" 
d="M127 725v-404l403 404h52l-292 -294l309 -431h-51l-287 401l-134 -134v-267h-41v725h41zM303 -49h39v-11q0 -30 -2 -49t-8.5 -39.5t-22 -31t-40.5 -12.5v39q21 5 27.5 24t6.5 68v12z" />
    <glyph glyph-name="uni0137" unicode="&#x137;" horiz-adv-x="476" 
d="M82 725h39v-484l283 297h47l-212 -223l237 -315h-47l-216 288l-92 -97v-191h-39v725zM238 -49h39v-11q0 -30 -2 -49t-8.5 -39.5t-22 -31t-40.5 -12.5v39q21 5 27.5 24t6.5 68v12z" />
    <glyph glyph-name="Lacute" unicode="&#x139;" horiz-adv-x="528" 
d="M127 725v-686h401v-39h-442v725h41zM278 886l-144 -113h-43l124 113h63z" />
    <glyph glyph-name="lacute" unicode="&#x13a;" horiz-adv-x="203" 
d="M121 725v-725h-39v725h39zM266 886l-144 -113h-43l124 113h63z" />
    <glyph glyph-name="uni013B" unicode="&#x13b;" horiz-adv-x="528" 
d="M127 725v-686h401v-39h-442v725h41zM288 -49h39v-11q0 -30 -2 -49t-8.5 -39.5t-22 -31t-40.5 -12.5v39q21 5 27.5 24t6.5 68v12z" />
    <glyph glyph-name="uni013C" unicode="&#x13c;" horiz-adv-x="203" 
d="M121 725v-725h-39v725h39zM83 -49h39v-11q0 -30 -2 -49t-8.5 -39.5t-22 -31t-40.5 -12.5v39q21 5 27.5 24t6.5 68v12z" />
    <glyph glyph-name="Lcaron" unicode="&#x13d;" horiz-adv-x="528" 
d="M127 725v-686h401v-39h-442v725h41zM329 725l-48 -170h-26l29 170h45z" />
    <glyph glyph-name="lcaron" unicode="&#x13e;" horiz-adv-x="214" 
d="M239 725l-48 -170h-26l29 170h45zM121 725v-725h-39v725h39z" />
    <glyph glyph-name="Ldot" unicode="&#x13f;" horiz-adv-x="528" 
d="M127 725v-686h401v-39h-442v725h41zM320 442h41v-96h-41v96z" />
    <glyph glyph-name="ldot" unicode="&#x140;" horiz-adv-x="242" 
d="M203 436h39v-96h-39v96zM121 725v-725h-39v725h39z" />
    <glyph glyph-name="Lslash" unicode="&#x141;" horiz-adv-x="533" 
d="M131 725v-371l250 171v-46l-250 -171v-269h401v-39h-442v280l-86 -59v46l86 59v399h41z" />
    <glyph glyph-name="lslash" unicode="&#x142;" horiz-adv-x="203" 
d="M121 725v-305l82 62v-41l-82 -62v-379h-39v350l-82 -61v41l82 61v334h39z" />
    <glyph glyph-name="Nacute" unicode="&#x143;" horiz-adv-x="722" 
d="M636 0h-55l-454 674v-674h-41v725h55l454 -674v674h41v-725zM506 886l-144 -113h-43l124 113h63z" />
    <glyph glyph-name="nacute" unicode="&#x144;" horiz-adv-x="558" 
d="M121 538v-124q18 55 65.5 94t124.5 39q180 0 180 -202v-345h-39v332q0 86 -33 132.5t-116 46.5q-85 0 -133.5 -67t-48.5 -180v-264h-39v538h39zM435 725l-130 -116h-39l111 116h58z" />
    <glyph glyph-name="uni0145" unicode="&#x145;" horiz-adv-x="722" 
d="M636 0h-55l-454 674v-674h-41v725h55l454 -674v674h41v-725zM342 -49h39v-11q0 -30 -2 -49t-8.5 -39.5t-22 -31t-40.5 -12.5v39q21 5 27.5 24t6.5 68v12z" />
    <glyph glyph-name="uni0146" unicode="&#x146;" horiz-adv-x="558" 
d="M121 538v-124q18 55 65.5 94t124.5 39q180 0 180 -202v-345h-39v332q0 86 -33 132.5t-116 46.5q-85 0 -133.5 -67t-48.5 -180v-264h-39v538h39zM263 -49h39v-11q0 -30 -2 -49t-8.5 -39.5t-22 -31t-40.5 -12.5v39q21 5 27.5 24t6.5 68v12z" />
    <glyph glyph-name="Ncaron" unicode="&#x147;" horiz-adv-x="722" 
d="M636 0h-55l-454 674v-674h-41v725h55l454 -674v674h41v-725zM347 773l-138 113h47l115 -83l116 83h47l-139 -113h-48z" />
    <glyph glyph-name="ncaron" unicode="&#x148;" horiz-adv-x="558" 
d="M121 538v-124q18 55 65.5 94t124.5 39q180 0 180 -202v-345h-39v332q0 86 -33 132.5t-116 46.5q-85 0 -133.5 -67t-48.5 -180v-264h-39v538h39zM277 609l-137 116h39l117 -82l118 82h39l-138 -116h-38z" />
    <glyph glyph-name="Eng" unicode="&#x14a;" horiz-adv-x="722" 
d="M595 0l-468 673v-673h-41v724h55l454 -654v654h41v-762q0 -81 -27 -109.5t-103 -28.5h-19v38h5q66 0 84.5 20t18.5 84v34z" />
    <glyph glyph-name="eng" unicode="&#x14b;" horiz-adv-x="558" 
d="M452 -46v378q0 86 -33 132.5t-116 46.5q-85 0 -133.5 -67t-48.5 -180v-264h-39v538h39v-124q18 55 65.5 94t124.5 39q180 0 180 -202v-393q0 -74 -22.5 -101t-90.5 -27h-23v35h8q58 0 73.5 18t15.5 77z" />
    <glyph glyph-name="Omacron" unicode="&#x14c;" horiz-adv-x="745" 
d="M86 363q0 -157 80 -247t206 -90q127 0 207 90t80 247t-80 246.5t-207 89.5q-126 0 -206 -89.5t-80 -246.5zM703 363q0 -170 -90 -273t-241 -103q-152 0 -241 104.5t-89 271.5t89 271t241 104q151 0 241 -103t90 -272zM508 813h-271v38h271v-38z" />
    <glyph glyph-name="omacron" unicode="&#x14d;" horiz-adv-x="571" 
d="M86 267q0 -119 54.5 -181.5t144.5 -62.5t144.5 62.5t54.5 181.5t-54.5 181.5t-144.5 62.5t-144.5 -62.5t-54.5 -181.5zM45 267q0 136 67.5 208t172.5 72t173 -72t68 -208t-67.5 -208t-173.5 -72q-105 0 -172.5 72t-67.5 208zM416 650h-261v34h261v-34z" />
    <glyph glyph-name="Obreve" unicode="&#x14e;" horiz-adv-x="745" 
d="M86 363q0 -157 80 -247t206 -90q127 0 207 90t80 247t-80 246.5t-207 89.5q-126 0 -206 -89.5t-80 -246.5zM703 363q0 -170 -90 -273t-241 -103q-152 0 -241 104.5t-89 271.5t89 271t241 104q151 0 241 -103t90 -272zM477 886h37q-4 -54 -42 -85.5t-101 -31.5
q-60 0 -98.5 31.5t-42.5 85.5h37q5 -44 34 -64.5t71 -20.5t71 20.5t34 64.5z" />
    <glyph glyph-name="obreve" unicode="&#x14f;" horiz-adv-x="571" 
d="M86 267q0 -119 54.5 -181.5t144.5 -62.5t144.5 62.5t54.5 181.5t-54.5 181.5t-144.5 62.5t-144.5 -62.5t-54.5 -181.5zM45 267q0 136 67.5 208t172.5 72t173 -72t68 -208t-67.5 -208t-173.5 -72q-105 0 -172.5 72t-67.5 208zM393 725h34q-11 -119 -142 -119
q-65 0 -101 31t-40 88h36q5 -46 30.5 -66.5t74.5 -20.5t75.5 20.5t32.5 66.5z" />
    <glyph glyph-name="Ohungarumlaut" unicode="&#x150;" horiz-adv-x="745" 
d="M86 363q0 -157 80 -247t206 -90q127 0 207 90t80 247t-80 246.5t-207 89.5q-126 0 -206 -89.5t-80 -246.5zM703 363q0 -170 -90 -273t-241 -103q-152 0 -241 104.5t-89 271.5t89 271t241 104q151 0 241 -103t90 -272zM451 886l-144 -113h-43l124 113h63zM626 886
l-145 -113h-43l124 113h64z" />
    <glyph glyph-name="ohungarumlaut" unicode="&#x151;" horiz-adv-x="571" 
d="M86 267q0 -119 54.5 -181.5t144.5 -62.5t144.5 62.5t54.5 181.5t-54.5 181.5t-144.5 62.5t-144.5 -62.5t-54.5 -181.5zM45 267q0 136 67.5 208t172.5 72t173 -72t68 -208t-67.5 -208t-173.5 -72q-105 0 -172.5 72t-67.5 208zM350 725l-130 -116h-39l111 116h58zM519 725
l-130 -116h-39l111 116h58z" />
    <glyph glyph-name="OE" unicode="&#x152;" horiz-adv-x="1142" 
d="M371 738q101 0 173 -48t108 -136v171h454v-40h-413v-290h388v-38h-388v-317h413v-40h-454v172q-77 -185 -284 -185q-149 0 -237.5 104t-88.5 272q0 167 90 271t239 104zM657 363q0 158 -79.5 247t-205.5 89t-206.5 -89t-80.5 -247q0 -159 80 -248t207 -89q126 0 205.5 89
t79.5 248z" />
    <glyph glyph-name="oe" unicode="&#x153;" horiz-adv-x="1010" 
d="M729 512q-88 0 -142.5 -56.5t-61.5 -155.5h400q0 87 -53.5 149.5t-142.5 62.5zM86 267q0 -119 54.5 -181.5t144.5 -62.5t144.5 62.5t54.5 181.5t-54.5 181.5t-144.5 62.5t-144.5 -62.5t-54.5 -181.5zM919 158h40q-17 -81 -76.5 -126t-149.5 -45q-84 0 -142.5 42
t-85.5 117q-26 -79 -84 -119t-136 -40q-105 0 -172.5 72t-67.5 208t67.5 208t172.5 72q78 0 136.5 -40t83.5 -118q26 75 85 116.5t140 41.5q110 0 175.5 -79t61.5 -204l-443 -2q0 -114 61 -176.5t150 -62.5q149 0 184 135z" />
    <glyph glyph-name="Racute" unicode="&#x154;" horiz-adv-x="635" 
d="M552 0l-178 337q-22 -2 -35 -2h-212v-335h-41v725h216q54 0 94 -4t77.5 -16.5t61.5 -33.5t38 -56t14 -83q0 -163 -171 -189l182 -343h-46zM300 688h-173v-316h173q46 0 78.5 3t65.5 12.5t53.5 26.5t33 46t12.5 70t-12.5 70t-33 46t-53.5 26.5t-65.5 12.5t-78.5 3z
M461 886l-144 -113h-43l124 113h63z" />
    <glyph glyph-name="racute" unicode="&#x155;" horiz-adv-x="300" 
d="M296 541v-41h-19q-88 0 -122.5 -65t-34.5 -188v-247h-38v538h36v-116q17 54 59 86.5t105 32.5h14zM338 725l-130 -116h-39l111 116h58z" />
    <glyph glyph-name="uni0156" unicode="&#x156;" horiz-adv-x="635" 
d="M552 0l-178 337q-22 -2 -35 -2h-212v-335h-41v725h216q54 0 94 -4t77.5 -16.5t61.5 -33.5t38 -56t14 -83q0 -163 -171 -189l182 -343h-46zM300 688h-173v-316h173q46 0 78.5 3t65.5 12.5t53.5 26.5t33 46t12.5 70t-12.5 70t-33 46t-53.5 26.5t-65.5 12.5t-78.5 3z
M297 -49h39v-11q0 -30 -2 -49t-8.5 -39.5t-22 -31t-40.5 -12.5v39q21 5 27.5 24t6.5 68v12z" />
    <glyph glyph-name="uni0157" unicode="&#x157;" horiz-adv-x="300" 
d="M82 -49h39v-11q0 -30 -2 -49t-8.5 -39.5t-22 -31t-40.5 -12.5v39q21 5 27.5 24t6.5 68v12zM296 541v-41h-19q-88 0 -122.5 -65t-34.5 -188v-247h-38v538h36v-116q17 54 59 86.5t105 32.5h14z" />
    <glyph glyph-name="Rcaron" unicode="&#x158;" horiz-adv-x="635" 
d="M552 0l-178 337q-22 -2 -35 -2h-212v-335h-41v725h216q54 0 94 -4t77.5 -16.5t61.5 -33.5t38 -56t14 -83q0 -163 -171 -189l182 -343h-46zM300 688h-173v-316h173q46 0 78.5 3t65.5 12.5t53.5 26.5t33 46t12.5 70t-12.5 70t-33 46t-53.5 26.5t-65.5 12.5t-78.5 3z
M292 773l-138 113h47l115 -83l116 83h47l-139 -113h-48z" />
    <glyph glyph-name="rcaron" unicode="&#x159;" horiz-adv-x="300" 
d="M296 541v-41h-19q-88 0 -122.5 -65t-34.5 -188v-247h-38v538h36v-116q17 54 59 86.5t105 32.5h14zM170 609l-137 116h39l117 -82l118 82h39l-138 -116h-38z" />
    <glyph glyph-name="Sacute" unicode="&#x15a;" horiz-adv-x="621" 
d="M53 560q0 87 75 132.5t174 45.5q107 0 178 -50.5t91 -145.5h-43q-20 78 -79.5 117.5t-149.5 39.5q-82 0 -142.5 -34t-60.5 -102q0 -113 162 -150l89 -20q37 -8 66 -17t63.5 -25.5t56.5 -37t37.5 -52t15.5 -69.5q0 -67 -39 -114.5t-98 -69t-131 -21.5q-119 0 -194.5 58.5
t-93.5 170.5h43q41 -190 243 -190q38 0 75 8t72.5 25t57.5 50t22 77q0 123 -203 167l-95 21q-38 9 -69.5 22.5t-60.5 35t-45.5 54.5t-16.5 74zM473 886l-144 -113h-43l124 113h63z" />
    <glyph glyph-name="sacute" unicode="&#x15b;" horiz-adv-x="507" 
d="M458 399h-40q-28 112 -169 112q-59 0 -106.5 -26t-47.5 -75q0 -79 114 -104l79 -15q85 -17 134 -49.5t49 -98.5q0 -74 -60 -115t-150 -41q-91 0 -148 44.5t-71 125.5h41q30 -134 183 -134q65 0 114.5 28.5t49.5 85.5q0 51 -38 76.5t-109 39.5l-83 16q-145 28 -145 139
q0 61 58 100t141 39q84 0 137.5 -39t66.5 -109zM405 725l-130 -116h-39l111 116h58z" />
    <glyph glyph-name="Scircumflex" unicode="&#x15c;" horiz-adv-x="621" 
d="M53 560q0 87 75 132.5t174 45.5q107 0 178 -50.5t91 -145.5h-43q-20 78 -79.5 117.5t-149.5 39.5q-82 0 -142.5 -34t-60.5 -102q0 -113 162 -150l89 -20q37 -8 66 -17t63.5 -25.5t56.5 -37t37.5 -52t15.5 -69.5q0 -67 -39 -114.5t-98 -69t-131 -21.5q-119 0 -194.5 58.5
t-93.5 170.5h43q41 -190 243 -190q38 0 75 8t72.5 25t57.5 50t22 77q0 123 -203 167l-95 21q-38 9 -69.5 22.5t-60.5 35t-45.5 54.5t-16.5 74zM334 886l137 -113h-47l-116 83l-115 -83h-47l139 113h49z" />
    <glyph glyph-name="scircumflex" unicode="&#x15d;" horiz-adv-x="507" 
d="M458 399h-40q-28 112 -169 112q-59 0 -106.5 -26t-47.5 -75q0 -79 114 -104l79 -15q85 -17 134 -49.5t49 -98.5q0 -74 -60 -115t-150 -41q-91 0 -148 44.5t-71 125.5h41q30 -134 183 -134q65 0 114.5 28.5t49.5 85.5q0 51 -38 76.5t-109 39.5l-83 16q-145 28 -145 139
q0 61 58 100t141 39q84 0 137.5 -39t66.5 -109zM278 725l137 -116h-39l-117 82l-118 -82h-39l138 116h38z" />
    <glyph glyph-name="Scedilla" unicode="&#x15e;" horiz-adv-x="621" 
d="M53 560q0 87 75 132.5t174 45.5q107 0 178 -50.5t91 -145.5h-43q-20 78 -79.5 117.5t-149.5 39.5q-82 0 -142.5 -34t-60.5 -102q0 -113 162 -150l89 -20q37 -8 66 -17t63.5 -25.5t56.5 -37t37.5 -52t15.5 -69.5q0 -67 -39 -114.5t-98 -69t-131 -21.5q-119 0 -194.5 58.5
t-93.5 170.5h43q41 -190 243 -190q38 0 75 8t72.5 25t57.5 50t22 77q0 123 -203 167l-95 21q-38 9 -69.5 22.5t-60.5 35t-45.5 54.5t-16.5 74zM226 -179l10 29q24 -11 55 -11q63 0 63 42q0 39 -51 39q-25 0 -43 -9l-14 14l48 76h30l-33 -56q13 3 28 3q33 0 52.5 -17
t19.5 -47q0 -37 -28.5 -55.5t-67.5 -18.5q-36 0 -69 11z" />
    <glyph glyph-name="scedilla" unicode="&#x15f;" horiz-adv-x="507" 
d="M458 399h-40q-28 112 -169 112q-59 0 -106.5 -26t-47.5 -75q0 -79 114 -104l79 -15q85 -17 134 -49.5t49 -98.5q0 -74 -60 -115t-150 -41q-91 0 -148 44.5t-71 125.5h41q30 -134 183 -134q65 0 114.5 28.5t49.5 85.5q0 51 -38 76.5t-109 39.5l-83 16q-145 28 -145 139
q0 61 58 100t141 39q84 0 137.5 -39t66.5 -109zM174 -179l10 29q24 -11 55 -11q63 0 63 42q0 39 -51 39q-25 0 -43 -9l-14 14l48 76h30l-33 -56q14 3 28 3q33 0 52.5 -17t19.5 -47q0 -37 -28.5 -55.5t-67.5 -18.5q-36 0 -69 11z" />
    <glyph glyph-name="Scaron" unicode="&#x160;" horiz-adv-x="621" 
d="M53 560q0 87 75 132.5t174 45.5q107 0 178 -50.5t91 -145.5h-43q-20 78 -79.5 117.5t-149.5 39.5q-82 0 -142.5 -34t-60.5 -102q0 -113 162 -150l89 -20q37 -8 66 -17t63.5 -25.5t56.5 -37t37.5 -52t15.5 -69.5q0 -67 -39 -114.5t-98 -69t-131 -21.5q-119 0 -194.5 58.5
t-93.5 170.5h43q41 -190 243 -190q38 0 75 8t72.5 25t57.5 50t22 77q0 123 -203 167l-95 21q-38 9 -69.5 22.5t-60.5 35t-45.5 54.5t-16.5 74zM284 773l-138 113h47l115 -83l116 83h47l-139 -113h-48z" />
    <glyph glyph-name="scaron" unicode="&#x161;" horiz-adv-x="507" 
d="M458 399h-40q-28 112 -169 112q-59 0 -106.5 -26t-47.5 -75q0 -79 114 -104l79 -15q85 -17 134 -49.5t49 -98.5q0 -74 -60 -115t-150 -41q-91 0 -148 44.5t-71 125.5h41q30 -134 183 -134q65 0 114.5 28.5t49.5 85.5q0 51 -38 76.5t-109 39.5l-83 16q-145 28 -145 139
q0 61 58 100t141 39q84 0 137.5 -39t66.5 -109zM240 609l-137 116h39l117 -82l118 82h39l-138 -116h-38z" />
    <glyph glyph-name="uni0162" unicode="&#x162;" horiz-adv-x="548" 
d="M253 0v686h-253v39h548v-39h-254v-686h-41zM255 -49h39v-11q0 -30 -2 -49t-8.5 -39.5t-22 -31t-40.5 -12.5v39q21 5 27.5 24t6.5 68v12z" />
    <glyph glyph-name="uni0163" unicode="&#x163;" horiz-adv-x="288" 
d="M109 538v127h38v-127h112v-34h-112v-368q0 -66 13 -83t74 -17h25v-36h-38q-70 0 -91 23t-21 99v382h-95v34h95zM127 -49h39v-11q0 -30 -2 -49t-8.5 -39.5t-22 -31t-40.5 -12.5v39q21 5 27.5 24t6.5 68v12z" />
    <glyph glyph-name="Tcaron" unicode="&#x164;" horiz-adv-x="548" 
d="M253 0v686h-253v39h548v-39h-254v-686h-41zM250 773l-138 113h47l115 -83l116 83h47l-139 -113h-48z" />
    <glyph glyph-name="tcaron" unicode="&#x165;" horiz-adv-x="302" 
d="M331 725l-49 -170h-26l29 170h46zM109 538v127h38v-127h112v-34h-112v-368q0 -66 13 -83t74 -17h25v-36h-38q-70 0 -91 23t-21 99v382h-95v34h95z" />
    <glyph glyph-name="Tbar" unicode="&#x166;" horiz-adv-x="548" 
d="M253 0v352h-168v38h168v296h-253v39h548v-39h-254v-296h169v-38h-169v-352h-41z" />
    <glyph glyph-name="tbar" unicode="&#x167;" horiz-adv-x="312" 
d="M119 538v127h38v-127h112v-34h-112v-132h112v-34h-112v-202q0 -66 13 -83t74 -17h25v-36h-38q-70 0 -91 23t-21 99v216h-95v34h95v132h-95v34h95z" />
    <glyph glyph-name="Utilde" unicode="&#x168;" horiz-adv-x="704" 
d="M352 -13q-147 0 -212 72t-65 235v431h41v-438q0 -134 55 -197.5t181 -63.5t181 63.5t55 197.5v438h41v-431q0 -163 -65 -235t-212 -72zM435 818q44 0 56 58h34q-17 -94 -89 -94q-30 0 -76.5 30t-70.5 30q-43 0 -55 -60h-34q7 45 31 69.5t58 24.5q32 0 78 -29t68 -29z" />
    <glyph glyph-name="utilde" unicode="&#x169;" horiz-adv-x="546" 
d="M425 0v120q-19 -56 -63.5 -94.5t-119.5 -38.5q-175 0 -175 202v349h39v-336q0 -85 32 -132t112 -47q83 0 129 67t46 180v268h39v-538h-39zM344 660q46 0 56 58h35q-17 -94 -89 -94q-31 0 -77.5 29.5t-69.5 29.5q-43 0 -54 -59h-36q7 44 31 69t58 25q33 0 79 -29t67 -29z
" />
    <glyph glyph-name="Umacron" unicode="&#x16a;" horiz-adv-x="704" 
d="M352 -13q-147 0 -212 72t-65 235v431h41v-438q0 -134 55 -197.5t181 -63.5t181 63.5t55 197.5v438h41v-431q0 -163 -65 -235t-212 -72zM488 813h-271v38h271v-38z" />
    <glyph glyph-name="umacron" unicode="&#x16b;" horiz-adv-x="546" 
d="M425 0v120q-19 -56 -63.5 -94.5t-119.5 -38.5q-175 0 -175 202v349h39v-336q0 -85 32 -132t112 -47q83 0 129 67t46 180v268h39v-538h-39zM402 650h-261v34h261v-34z" />
    <glyph glyph-name="Ubreve" unicode="&#x16c;" horiz-adv-x="704" 
d="M352 -13q-147 0 -212 72t-65 235v431h41v-438q0 -134 55 -197.5t181 -63.5t181 63.5t55 197.5v438h41v-431q0 -163 -65 -235t-212 -72zM457 886h37q-4 -54 -42 -85.5t-101 -31.5q-60 0 -98.5 31.5t-42.5 85.5h37q5 -44 34 -64.5t71 -20.5t71 20.5t34 64.5z" />
    <glyph glyph-name="ubreve" unicode="&#x16d;" horiz-adv-x="546" 
d="M425 0v120q-19 -56 -63.5 -94.5t-119.5 -38.5q-175 0 -175 202v349h39v-336q0 -85 32 -132t112 -47q83 0 129 67t46 180v268h39v-538h-39zM374 725h34q-11 -119 -142 -119q-65 0 -101 31t-40 88h36q5 -46 30.5 -66.5t74.5 -20.5t75.5 20.5t32.5 66.5z" />
    <glyph glyph-name="Uring" unicode="&#x16e;" horiz-adv-x="704" 
d="M352 -13q-147 0 -212 72t-65 235v431h41v-438q0 -134 55 -197.5t181 -63.5t181 63.5t55 197.5v438h41v-431q0 -163 -65 -235t-212 -72zM353 932q37 0 61.5 -23t24.5 -59q0 -35 -25 -58t-61 -23t-61.5 23t-25.5 58q0 36 25 59t62 23zM353 904q-23 0 -39 -14.5t-16 -39.5
q0 -24 16 -38t39 -14q22 0 38 14t16 38q0 25 -16 39.5t-38 14.5z" />
    <glyph glyph-name="uring" unicode="&#x16f;" horiz-adv-x="546" 
d="M425 0v120q-19 -56 -63.5 -94.5t-119.5 -38.5q-175 0 -175 202v349h39v-336q0 -85 32 -132t112 -47q83 0 129 67t46 180v268h39v-538h-39zM270 760q36 0 61 -23.5t25 -58.5q0 -36 -24.5 -59t-61.5 -23t-62 23t-25 59q0 35 25.5 58.5t61.5 23.5zM270 733
q-23 0 -39.5 -15.5t-16.5 -39.5t16.5 -39.5t39.5 -15.5q22 0 38.5 15.5t16.5 39.5t-16.5 39.5t-38.5 15.5z" />
    <glyph glyph-name="Uhungarumlaut" unicode="&#x170;" horiz-adv-x="704" 
d="M352 -13q-147 0 -212 72t-65 235v431h41v-438q0 -134 55 -197.5t181 -63.5t181 63.5t55 197.5v438h41v-431q0 -163 -65 -235t-212 -72zM411 886l-144 -113h-43l124 113h63zM586 886l-145 -113h-43l124 113h64z" />
    <glyph glyph-name="uhungarumlaut" unicode="&#x171;" horiz-adv-x="546" 
d="M321 725l-130 -116h-39l111 116h58zM490 725l-130 -116h-39l111 116h58zM425 0v120q-19 -56 -63.5 -94.5t-119.5 -38.5q-175 0 -175 202v349h39v-336q0 -85 32 -132t112 -47q83 0 129 67t46 180v268h39v-538h-39z" />
    <glyph glyph-name="Uogonek" unicode="&#x172;" horiz-adv-x="704" 
d="M374 -188q-36 0 -63.5 23t-27.5 60q0 50 65 92q-143 0 -208 72.5t-65 234.5v431h41v-438q0 -134 55 -197.5t181 -63.5t181 63.5t55 197.5v438h41v-431q0 -282 -206 -302q-29 -4 -62.5 -35t-33.5 -60q0 -23 17 -36t45 -13q9 0 30 3v-34q-15 -5 -45 -5z" />
    <glyph glyph-name="uogonek" unicode="&#x173;" horiz-adv-x="547" 
d="M425 0v120q-19 -56 -63.5 -94.5t-119.5 -38.5q-175 0 -175 202v349h39v-336q0 -85 32 -132t112 -47q83 0 129 67t46 180v268h39v-538h-39zM426 0h39q-39 -18 -67 -45t-28 -57q0 -52 65 -52q18 0 30 5v-34q-15 -5 -45 -5q-36 0 -63.5 22.5t-27.5 58.5q0 35 30.5 65.5
t66.5 41.5z" />
    <glyph glyph-name="Wcircumflex" unicode="&#x174;" horiz-adv-x="958" 
d="M502 725l187 -666l194 666h45l-219 -725h-43l-187 659l-186 -659h-43l-220 725h45l197 -666l184 666h46zM499 886l137 -113h-47l-116 83l-115 -83h-47l139 113h49z" />
    <glyph glyph-name="wcircumflex" unicode="&#x175;" horiz-adv-x="741" 
d="M201 59l149 479h41l151 -480l140 480h44l-165 -538h-38l-154 483l-151 -483h-37l-166 538h44zM387 725l137 -116h-39l-117 82l-118 -82h-39l138 116h38z" />
    <glyph glyph-name="Ycircumflex" unicode="&#x176;" horiz-adv-x="565" 
d="M0 725h46l234 -407l238 407h47l-265 -451v-274h-41v275zM308 886l137 -113h-47l-116 83l-115 -83h-47l139 113h49z" />
    <glyph glyph-name="ycircumflex" unicode="&#x177;" horiz-adv-x="471" 
d="M88 -175h-30v35h31q47 0 66 14.5t44 77.5l19 49l-213 537h44l188 -485l185 485h44l-231 -591q-31 -77 -57 -99.5t-90 -22.5zM260 725l137 -116h-39l-117 82l-118 -82h-39l138 116h38z" />
    <glyph glyph-name="Ydieresis" unicode="&#x178;" horiz-adv-x="565" 
d="M0 725h46l234 -407l238 407h47l-265 -451v-274h-41v275zM153 877h41v-96h-41v96zM369 877h42v-96h-42v96z" />
    <glyph glyph-name="Zacute" unicode="&#x179;" horiz-adv-x="613" 
d="M572 725v-37l-485 -649h498v-39h-547v38l484 648h-446v39h496zM476 886l-144 -113h-43l124 113h63z" />
    <glyph glyph-name="zacute" unicode="&#x17a;" horiz-adv-x="487" 
d="M32 0v33l351 469h-328v36h375v-33l-351 -469h357v-36h-404zM383 725l-130 -116h-39l111 116h58z" />
    <glyph glyph-name="Zdotaccent" unicode="&#x17b;" horiz-adv-x="613" 
d="M572 725v-37l-485 -649h498v-39h-547v38l484 648h-446v39h496zM301 877h41v-96h-41v96z" />
    <glyph glyph-name="zdotaccent" unicode="&#x17c;" horiz-adv-x="487" 
d="M32 0v33l351 469h-328v36h375v-33l-351 -469h357v-36h-404zM235 725h39v-96h-39v96z" />
    <glyph glyph-name="Zcaron" unicode="&#x17d;" horiz-adv-x="613" 
d="M572 725v-37l-485 -649h498v-39h-547v38l484 648h-446v39h496zM301 773l-138 113h47l115 -83l116 83h47l-139 -113h-48z" />
    <glyph glyph-name="zcaron" unicode="&#x17e;" horiz-adv-x="487" 
d="M32 0v33l351 469h-328v36h375v-33l-351 -469h357v-36h-404zM243 609l-137 116h39l117 -82l118 82h39l-138 -116h-38z" />
    <glyph glyph-name="uni018F" unicode="&#x18f;" horiz-adv-x="737" 
d="M42 358h609q0 160 -77 252t-205 92q-97 0 -169 -46.5t-98 -134.5h-42q27 102 111 159.5t197 57.5q151 0 238 -103t87 -272t-88.5 -272.5t-238.5 -103.5q-149 0 -236.5 101.5t-87.5 269.5zM367 24q120 0 196 80t86 218h-562q6 -141 84 -219.5t196 -78.5z" />
    <glyph glyph-name="uni0218" unicode="&#x218;" horiz-adv-x="621" 
d="M53 560q0 87 75 132.5t174 45.5q107 0 178 -50.5t91 -145.5h-43q-20 78 -79.5 117.5t-149.5 39.5q-82 0 -142.5 -34t-60.5 -102q0 -113 162 -150l89 -20q37 -8 66 -17t63.5 -25.5t56.5 -37t37.5 -52t15.5 -69.5q0 -67 -39 -114.5t-98 -69t-131 -21.5q-119 0 -194.5 58.5
t-93.5 170.5h43q41 -190 243 -190q38 0 75 8t72.5 25t57.5 50t22 77q0 123 -203 167l-95 21q-38 9 -69.5 22.5t-60.5 35t-45.5 54.5t-16.5 74zM289 -49h39v-11q0 -30 -2 -49t-8.5 -39.5t-22 -31t-40.5 -12.5v39q21 5 27.5 24t6.5 68v12z" />
    <glyph glyph-name="uni0219" unicode="&#x219;" horiz-adv-x="507" 
d="M458 399h-40q-28 112 -169 112q-59 0 -106.5 -26t-47.5 -75q0 -79 114 -104l79 -15q85 -17 134 -49.5t49 -98.5q0 -74 -60 -115t-150 -41q-91 0 -148 44.5t-71 125.5h41q30 -134 183 -134q65 0 114.5 28.5t49.5 85.5q0 51 -38 76.5t-109 39.5l-83 16q-145 28 -145 139
q0 61 58 100t141 39q84 0 137.5 -39t66.5 -109zM252 -49h39v-11q0 -30 -2 -49t-8.5 -39.5t-22 -31t-40.5 -12.5v39q21 5 27.5 24t6.5 68v12z" />
    <glyph glyph-name="uni021A" unicode="&#x21a;" horiz-adv-x="548" 
d="M253 0v686h-253v39h548v-39h-254v-686h-41zM255 -49h39v-11q0 -30 -2 -49t-8.5 -39.5t-22 -31t-40.5 -12.5v39q21 5 27.5 24t6.5 68v12z" />
    <glyph glyph-name="uni021B" unicode="&#x21b;" horiz-adv-x="288" 
d="M109 538v127h38v-127h112v-34h-112v-368q0 -66 13 -83t74 -17h25v-36h-38q-70 0 -91 23t-21 99v382h-95v34h95zM127 -49h39v-11q0 -30 -2 -49t-8.5 -39.5t-22 -31t-40.5 -12.5v39q21 5 27.5 24t6.5 68v12z" />
    <glyph glyph-name="uni0232" unicode="&#x232;" horiz-adv-x="565" 
d="M0 725h46l234 -407l238 407h47l-265 -451v-274h-41v275zM418 813h-271v38h271v-38z" />
    <glyph glyph-name="uni0233" unicode="&#x233;" horiz-adv-x="471" 
d="M88 -175h-30v35h31q47 0 66 14.5t44 77.5l19 49l-213 537h44l188 -485l185 485h44l-231 -591q-31 -77 -57 -99.5t-90 -22.5zM372 650h-261v34h261v-34z" />
    <glyph glyph-name="uni0237" unicode="&#x237;" horiz-adv-x="203" 
d="M82 -45v583h39v-586q0 -74 -22.5 -100.5t-90.5 -26.5h-23v35h9q57 0 72.5 18t15.5 77z" />
    <glyph glyph-name="uni0259" unicode="&#x259;" horiz-adv-x="574" 
d="M279 547q115 0 182.5 -77t67.5 -204q0 -128 -67.5 -203.5t-179.5 -75.5q-110 0 -175.5 78.5t-61.5 203.5h443q0 116 -60.5 179t-150.5 63q-149 0 -184 -135h-40q17 81 76.5 126t149.5 45zM283 22q88 0 142.5 56.5t61.5 155.5h-400q0 -87 53.5 -149.5t142.5 -62.5z" />
    <glyph glyph-name="circumflex" unicode="&#x2c6;" horiz-adv-x="357" 
d="M198 725l137 -116h-39l-117 82l-118 -82h-39l138 116h38z" />
    <glyph glyph-name="caron" unicode="&#x2c7;" horiz-adv-x="357" 
d="M159 609l-137 116h39l117 -82l118 82h39l-138 -116h-38z" />
    <glyph glyph-name="breve" unicode="&#x2d8;" horiz-adv-x="327" 
d="M271 725h34q-11 -119 -142 -119q-65 0 -101 31t-40 88h36q5 -46 30.5 -66.5t74.5 -20.5t75.5 20.5t32.5 66.5z" />
    <glyph glyph-name="dotaccent" unicode="&#x2d9;" horiz-adv-x="83" 
d="M22 725h39v-96h-39v96z" />
    <glyph glyph-name="ring" unicode="&#x2da;" horiz-adv-x="217" 
d="M109 760q36 0 61 -23.5t25 -58.5q0 -36 -24.5 -59t-61.5 -23t-62 23t-25 59q0 35 25.5 58.5t61.5 23.5zM109 733q-23 0 -39.5 -15.5t-16.5 -39.5t16.5 -39.5t39.5 -15.5q22 0 38.5 15.5t16.5 39.5t-16.5 39.5t-38.5 15.5z" />
    <glyph glyph-name="ogonek" unicode="&#x2db;" horiz-adv-x="180" 
d="M119 0h39q-39 -18 -67 -45t-28 -57q0 -52 65 -52q18 0 30 5v-34q-15 -5 -45 -5q-36 0 -63.5 22.5t-27.5 58.5q0 35 30.5 65.5t66.5 41.5z" />
    </font>
</defs>
</svg>
