<?xml version="1.0" standalone="no"?>
<!DOCTYPE svg PUBLIC "-//W3C//DTD SVG 1.1//EN" "http://www.w3.org/Graphics/SVG/1.1/DTD/svg11.dtd" >
<svg xmlns="http://www.w3.org/2000/svg" xmlns:xlink="http://www.w3.org/1999/xlink" version="1.1">
<metadata>
Created by FontForge 20190801 at Sun Aug 19 16:56:18 2018
 By www-data
Copyright (c) 2016 Swiss Typefaces Sarl. All rights reserved. |DCNT
</metadata>
<defs>
<font id="SuisseIntlBook" horiz-adv-x="678" >
  <font-face 
    font-family="SuisseIntlBook"
    font-weight="450"
    font-stretch="normal"
    units-per-em="1000"
    panose-1="2 11 5 4 0 0 0 0 0 0"
    ascent="750"
    descent="-250"
    x-height="538"
    cap-height="725"
    bbox="-200 -237 1384 935"
    underline-thickness="70"
    underline-position="-110"
    unicode-range="U+0020-FB02"
  />
<missing-glyph horiz-adv-x="500" 
d="M0 0v725h500v-725h-500zM239 362l-220 334v-667zM260 362l221 -333v667zM250 346l-217 -327h433zM33 706l217 -328l216 328h-433z" />
    <glyph glyph-name="uni0407_uni0407" unicode="&#x407;&#x407;" horiz-adv-x="548" 
d="M194 725v-725h-114v725h114zM468 725v-725h-114v725h114zM10 882h106v-103h-106v103zM401 882h106v-103h-106v103zM205 882h106v-103h-106v103z" />
    <glyph glyph-name="uni0457_uni0457" unicode="&#x457;&#x457;" horiz-adv-x="488" 
d="M70 538h104v-538h-104v538zM314 538h104v-538h-104v538zM-21 725h98v-105h-98v105zM177 725h98v-105h-98v105zM377 725h98v-105h-98v105z" />
    <glyph glyph-name=".notdef" horiz-adv-x="500" 
d="M0 0v725h500v-725h-500zM239 362l-220 334v-667zM260 362l221 -333v667zM250 346l-217 -327h433zM33 706l217 -328l216 328h-433z" />
    <glyph glyph-name=".null" horiz-adv-x="0" 
 />
    <glyph glyph-name="nonmarkingreturn" horiz-adv-x="333" 
 />
    <glyph glyph-name="space" unicode=" " horiz-adv-x="234" 
 />
    <glyph glyph-name="exclam" unicode="!" horiz-adv-x="243" 
d="M155 212h-67l-21 304v209h108v-209zM184 0h-125v125h125v-125z" />
    <glyph glyph-name="quotedbl" unicode="&#x22;" horiz-adv-x="328" 
d="M191 725h114l-20 -248h-74zM23 725h114l-20 -248h-74z" />
    <glyph glyph-name="numbersign" unicode="#" horiz-adv-x="683" 
d="M63 544h141l25 181h89l-26 -181h150l25 181h89l-25 -181h135l-11 -82h-136l-23 -170h135l-10 -81h-137l-28 -211h-89l28 211h-149l-28 -211h-89l29 211h-140l11 81h140l24 170h-140zM281 462l-23 -170h149l23 170h-149z" />
    <glyph glyph-name="dollar" unicode="$" horiz-adv-x="598" 
d="M268 811h56v-73q104 -8 165.5 -71t59.5 -161h-105q-2 67 -35.5 105t-84.5 44v-238l13 -3q39 -10 66 -19.5t60 -27t53 -38.5t34 -54t14 -74q0 -97 -68.5 -152t-171.5 -61v-85h-56v85q-106 8 -171.5 76t-63.5 169h106q0 -71 37.5 -113t91.5 -49v259l-27 7q-86 21 -138.5 73
t-52.5 134q0 84 63.5 134.5t154.5 59.5v73zM460 189q0 54 -32 80t-104 46v-245q58 2 97 33.5t39 85.5zM154 546q0 -83 110 -114l4 -1v225q-48 -2 -81 -31t-33 -79z" />
    <glyph glyph-name="percent" unicode="%" horiz-adv-x="1016" 
d="M201 310q-80 0 -123 57.5t-43 153.5t43 153.5t123 57.5q82 0 125 -57t43 -154t-43 -154t-125 -57zM201 369q86 0 86 152t-86 152q-40 0 -62 -39t-22 -113t22 -113t62 -39zM314 0h-113l500 725h113zM816 -7q-81 0 -124 57t-43 154t43 154t124 57t124 -57t43 -154t-43 -154
t-124 -57zM816 52q85 0 85 152t-85 152t-85 -152t85 -152z" />
    <glyph glyph-name="ampersand" unicode="&#x26;" horiz-adv-x="700" 
d="M264 -13q-108 0 -174.5 60.5t-66.5 152.5q0 79 49 134.5t130 83.5q-78 93 -78 165q0 70 55.5 113t142.5 43q78 0 134 -38.5t56 -119.5q0 -124 -145 -188l132 -141q26 68 32 145h106q-11 -124 -67 -221l164 -176h-146l-83 89q-99 -102 -241 -102zM274 75q98 0 169 81
l-183 198q-127 -46 -127 -149q0 -59 39.5 -94.5t101.5 -35.5zM234 588q0 -57 74 -131l1 -2q104 42 104 123q0 39 -25 58.5t-64 19.5q-38 0 -64 -18t-26 -50z" />
    <glyph glyph-name="quotesingle" unicode="'" horiz-adv-x="160" 
d="M23 725h114l-20 -248h-74z" />
    <glyph glyph-name="parenleft" unicode="(" horiz-adv-x="251" 
d="M28 275q0 135 41 252.5t97 197.5h90q-120 -193 -120 -450q0 -260 120 -450h-90q-56 80 -97 197.5t-41 252.5z" />
    <glyph glyph-name="parenright" unicode=")" horiz-adv-x="251" 
d="M223 275q0 -136 -41 -252.5t-97 -197.5h-90q120 190 120 450q0 257 -120 450h90q56 -81 97 -197.5t41 -252.5z" />
    <glyph glyph-name="asterisk" unicode="*" horiz-adv-x="357" 
d="M210 725v-115l108 41l26 -64l-110 -39l66 -93l-53 -41l-72 97l-65 -97l-60 40l67 94l-109 39l23 64l109 -41v115h70z" />
    <glyph glyph-name="plus" unicode="+" 
d="M390 0h-100v220h-224v96h224v218h100v-218h223v-96h-223v-220z" />
    <glyph glyph-name="comma" unicode="," horiz-adv-x="243" 
d="M59 0v125h125v-134l-65 -139h-65l60 148h-55z" />
    <glyph glyph-name="hyphen" unicode="-" horiz-adv-x="413" 
d="M367 224h-322v96h322v-96z" />
    <glyph glyph-name="period" unicode="." horiz-adv-x="243" 
d="M184 0h-125v125h125v-125z" />
    <glyph glyph-name="slash" unicode="/" horiz-adv-x="381" 
d="M100 0h-102l283 725h103z" />
    <glyph glyph-name="zero" unicode="0" horiz-adv-x="659" 
d="M329 71q84 0 129.5 74t45.5 218q0 143 -45.5 217.5t-129.5 74.5q-83 0 -129 -74.5t-46 -217.5q0 -144 46 -218t129 -74zM329 -13q-141 0 -213 100.5t-72 275.5t72 275t213 100q142 0 213.5 -100t71.5 -275q0 -176 -71.5 -276t-213.5 -100z" />
    <glyph glyph-name="one" unicode="1" horiz-adv-x="362" 
d="M276 0h-105v560h-165v71q84 2 127 20.5t68 73.5h75v-725z" />
    <glyph glyph-name="two" unicode="2" horiz-adv-x="583" 
d="M300 738q103 0 168 -50.5t65 -140.5q0 -58 -27 -116t-80.5 -115.5t-115.5 -109t-148 -112.5h390v-94h-525v90q104 79 169 133.5t121 112t81.5 106t25.5 94.5q0 55 -34 87t-93 32q-62 0 -104 -38.5t-42 -120.5h-106q-2 109 68.5 175.5t186.5 66.5z" />
    <glyph glyph-name="three" unicode="3" horiz-adv-x="594" 
d="M287 71q70 0 113 35t43 97q0 132 -196 132h-25v91h21q181 0 181 116q0 55 -38 84t-96 29q-67 0 -105.5 -37.5t-47.5 -102.5h-104q8 102 77.5 162.5t184.5 60.5q102 0 170 -46t68 -141q0 -55 -29.5 -99t-83.5 -67q69 -23 100.5 -71t31.5 -109q0 -105 -77 -161.5
t-190 -56.5q-120 0 -188 66.5t-74 165.5h104q9 -67 49 -107.5t111 -40.5z" />
    <glyph glyph-name="four" unicode="4" horiz-adv-x="622" 
d="M372 586l-244 -317h244v317zM607 269v-94h-130v-175h-105v175h-359v92l359 458h105v-456h130z" />
    <glyph glyph-name="five" unicode="5" horiz-adv-x="606" 
d="M300 71q65 0 109 44.5t44 120.5q0 80 -46 122.5t-109 42.5q-50 0 -86.5 -23t-49.5 -55l-101 6l48 396h424v-95h-339l-24 -194q56 50 153 50q100 0 169.5 -66t69.5 -183q0 -118 -76.5 -184t-186.5 -66q-118 0 -185 65.5t-76 163.5h104q20 -145 158 -145z" />
    <glyph glyph-name="six" unicode="6" horiz-adv-x="616" 
d="M161 232q0 -74 41.5 -117.5t108.5 -43.5t109 44.5t42 116.5q0 73 -42 118.5t-108 45.5q-67 0 -109 -45.5t-42 -118.5zM320 655q-78 0 -122.5 -72t-46.5 -193q59 93 183 93q102 0 169.5 -68.5t67.5 -178.5q0 -107 -72 -178t-187 -71q-135 0 -201.5 92t-66.5 260
q0 82 15.5 151t48 126t89.5 89.5t133 32.5q102 0 159.5 -54.5t68.5 -133.5h-109q-8 50 -42.5 77.5t-86.5 27.5z" />
    <glyph glyph-name="seven" unicode="7" horiz-adv-x="506" 
d="M4 630v95h511v-95q-280 -246 -303 -630h-122q9 187 91.5 348.5t218.5 281.5h-396z" />
    <glyph glyph-name="eight" unicode="8" horiz-adv-x="630" 
d="M314 738q111 0 178 -52t67 -133q0 -50 -24 -94.5t-72 -72.5q118 -52 118 -181q0 -102 -75 -160t-192 -58t-192 58t-75 160q0 128 119 181q-48 28 -72 73t-24 94q0 81 66.5 133t177.5 52zM314 345q-72 0 -114.5 -37.5t-42.5 -100.5t42.5 -99.5t114.5 -36.5t115 36.5
t43 99.5t-43 100.5t-115 37.5zM455 540q0 53 -38.5 84t-102.5 31t-102.5 -31t-38.5 -84q0 -54 39 -88t102 -34t102 34t39 88z" />
    <glyph glyph-name="nine" unicode="9" horiz-adv-x="610" 
d="M447 493q0 74 -41 118t-108 44t-109 -44t-42 -118q0 -73 42 -118.5t108 -45.5t108 45.5t42 118.5zM289 71q78 0 121.5 71t47.5 193q-59 -93 -183 -93q-102 0 -169.5 69t-67.5 179q0 107 72 177.5t187 70.5q135 0 201.5 -92t66.5 -260q0 -82 -15.5 -151t-48 -126
t-89.5 -89.5t-133 -32.5q-102 0 -160.5 55t-67.5 133h109q8 -51 41.5 -77.5t87.5 -26.5z" />
    <glyph glyph-name="colon" unicode=":" horiz-adv-x="243" 
d="M184 413h-125v125h125v-125zM184 0h-125v125h125v-125z" />
    <glyph glyph-name="semicolon" unicode=";" horiz-adv-x="245" 
d="M184 413h-125v125h125v-125zM59 0v125h125v-134l-65 -139h-65l60 148h-55z" />
    <glyph glyph-name="less" unicode="&#x3c;" 
d="M78 312l513 225v-109l-388 -160l388 -159v-108l-513 222v89z" />
    <glyph glyph-name="equal" unicode="=" 
d="M591 325h-503v97h503v-97zM591 121h-503v96h503v-96z" />
    <glyph glyph-name="greater" unicode="&#x3e;" 
d="M601 312v-89l-514 -222v108l389 159l-389 160v109z" />
    <glyph glyph-name="question" unicode="?" horiz-adv-x="506" 
d="M263 738q95 0 163 -45.5t68 -131.5q0 -119 -131 -201q-52 -34 -69.5 -55t-17.5 -63v-31h-105v34q0 62 27.5 100t90.5 77q48 30 72.5 60t24.5 74t-35 70t-90 26q-70 0 -107 -39.5t-39 -97.5h-104q0 101 70.5 162t181.5 61zM287 0h-125v125h125v-125z" />
    <glyph glyph-name="at" unicode="@" horiz-adv-x="838" 
d="M611 153q-41 0 -70.5 24t-35.5 68q-48 -89 -149 -89q-65 0 -108.5 45.5t-43.5 134.5q0 92 57 161.5t149 69.5q84 0 115 -76q1 4 4 29.5t4 29.5h71l-29 -218q-6 -34 -3 -54q5 -53 45 -53t67.5 48t27.5 129q0 122 -76 187.5t-202 65.5q-137 0 -224 -88t-87 -221
q0 -126 74.5 -205t199.5 -79q109 0 192 43l28 -69q-102 -49 -220 -49q-157 0 -255.5 101.5t-98.5 260.5q0 160 113 268t280 108q100 0 177.5 -33t126.5 -106.5t49 -179.5q0 -117 -52.5 -185t-125.5 -68zM411 491q-54 0 -86.5 -46t-32.5 -111q0 -104 83 -104q57 0 90 47
t33 117q0 47 -22.5 72t-64.5 25z" />
    <glyph glyph-name="A" unicode="A" horiz-adv-x="668" 
d="M0 0l269 725h126l273 -725h-124l-57 159h-315l-56 -159h-116zM328 601l-122 -346h246z" />
    <glyph glyph-name="B" unicode="B" horiz-adv-x="670" 
d="M80 0v725h267q257 0 257 -182q0 -51 -22 -94t-58 -63q109 -49 109 -172q0 -110 -73 -162t-192 -52h-288zM194 330v-236h177q145 0 145 120q0 60 -36.5 88t-114.5 28h-171zM194 631v-213h167q128 0 128 111q0 50 -34.5 76t-93.5 26h-167z" />
    <glyph glyph-name="C" unicode="C" horiz-adv-x="726" 
d="M583 236h110q-24 -119 -107 -184t-206 -65q-155 0 -243.5 103.5t-88.5 273.5q0 171 91.5 272.5t247.5 101.5q118 0 200 -65.5t103 -183.5h-110q-18 73 -68.5 113.5t-129.5 40.5q-96 0 -156.5 -73.5t-60.5 -205.5q0 -131 61 -206.5t157 -75.5q80 0 131 40.5t69 113.5z" />
    <glyph glyph-name="D" unicode="D" horiz-adv-x="725" 
d="M560 363q0 69 -16.5 119t-42 78t-65.5 44.5t-77 21.5t-86 5h-79v-537h79q49 0 86 5t77 21.5t65.5 44.5t42 78.5t16.5 119.5zM80 725h198q91 0 160.5 -18t125 -58t85 -112t29.5 -174t-29.5 -174.5t-85 -112.5t-125 -58t-160.5 -18h-198v725z" />
    <glyph glyph-name="E" unicode="E" horiz-adv-x="614" 
d="M80 0v725h502v-97h-388v-207h366v-96h-366v-228h388v-97h-502z" />
    <glyph glyph-name="F" unicode="F" horiz-adv-x="570" 
d="M80 0v725h488v-97h-374v-207h352v-96h-352v-325h-114z" />
    <glyph glyph-name="G" unicode="G" horiz-adv-x="767" 
d="M390 738q119 0 199.5 -61.5t103.5 -171.5h-110q-18 65 -68 101.5t-129 36.5q-98 0 -159.5 -73t-61.5 -206q0 -132 60 -207t160 -75q37 0 71 8.5t65.5 28t50 56t18.5 86.5v16h-189v97h295v-374h-89l-5 89q-67 -102 -225 -102q-154 0 -241.5 103.5t-87.5 273.5
q0 169 93 271.5t249 102.5z" />
    <glyph glyph-name="H" unicode="H" horiz-adv-x="752" 
d="M558 725h114v-725h-114v325h-364v-325h-114v725h114v-304h364v304z" />
    <glyph glyph-name="I" unicode="I" horiz-adv-x="274" 
d="M194 725v-725h-114v725h114z" />
    <glyph glyph-name="J" unicode="J" horiz-adv-x="566" 
d="M249 -13q-114 0 -176 64.5t-62 182.5h110q0 -74 35 -114t93 -40q55 0 89 38t34 120v487h114v-488q0 -118 -62 -184t-175 -66z" />
    <glyph glyph-name="K" unicode="K" horiz-adv-x="670" 
d="M194 725v-355l318 355h138l-270 -296l298 -429h-135l-239 346l-110 -121v-225h-114v725h114z" />
    <glyph glyph-name="L" unicode="L" horiz-adv-x="568" 
d="M194 725v-628h374v-97h-488v725h114z" />
    <glyph glyph-name="M" unicode="M" horiz-adv-x="887" 
d="M503 0h-118l-193 610v-610h-112v725h183l181 -592l181 592h183v-725h-112v610z" />
    <glyph glyph-name="N" unicode="N" horiz-adv-x="751" 
d="M671 0h-159l-320 600v-600h-112v725h159l320 -599v599h112v-725z" />
    <glyph glyph-name="O" unicode="O" horiz-adv-x="781" 
d="M165 363q0 -132 63.5 -206.5t162.5 -74.5q97 0 161 75t64 206q0 132 -63.5 206t-161.5 74q-99 0 -162.5 -74t-63.5 -206zM733 363q0 -168 -93 -272t-249 -104q-157 0 -250 104t-93 272q0 167 93 271t250 104q156 0 249 -104t93 -271z" />
    <glyph glyph-name="P" unicode="P" horiz-adv-x="634" 
d="M80 725h233q70 0 119.5 -8.5t94 -31.5t67.5 -68.5t23 -114.5q0 -66 -22 -110.5t-65 -68t-94.5 -33t-122.5 -9.5h-119v-281h-114v725zM317 631h-123v-254h126q43 0 71 4t55 16t40 38t13 66q0 34 -10 58.5t-25 38t-40.5 21.5t-49 10t-57.5 2z" />
    <glyph glyph-name="Q" unicode="Q" horiz-adv-x="781" 
d="M733 363q0 -170 -96 -275l85 -93l-69 -64l-90 98q-76 -42 -172 -42q-157 0 -250 104t-93 272q0 167 93 271t250 104q156 0 249 -104t93 -271zM165 363q0 -132 63.5 -206.5t162.5 -74.5q55 0 101 25l-63 69l69 64l64 -71q54 73 54 194q0 132 -63.5 206t-161.5 74
q-99 0 -162.5 -74t-63.5 -206z" />
    <glyph glyph-name="R" unicode="R" horiz-adv-x="679" 
d="M521 0l-155 306q-15 -1 -47 -1h-125v-305h-114v725h230q158 0 235 -45t77 -164q0 -148 -140 -191l167 -325h-128zM323 631h-129v-233h131q91 0 135.5 23.5t44.5 92.5q0 71 -46 94t-136 23z" />
    <glyph glyph-name="S" unicode="S" horiz-adv-x="644" 
d="M344 318l-89 18q-87 18 -144 67t-57 134q0 65 41.5 112t100 68t123.5 21q107 0 181 -51t95 -156h-110q-17 59 -64.5 85.5t-106.5 26.5q-51 0 -97.5 -25t-46.5 -76q0 -81 110 -104l86 -18q51 -11 88 -24t75.5 -36.5t59 -62.5t20.5 -91q0 -102 -83 -160.5t-196 -58.5
q-126 0 -206 65.5t-92 179.5h112q32 -150 190 -150q72 0 116 31t44 84q0 90 -150 121z" />
    <glyph glyph-name="T" unicode="T" horiz-adv-x="583" 
d="M235 0v628h-233v97h579v-97h-232v-628h-114z" />
    <glyph glyph-name="U" unicode="U" horiz-adv-x="724" 
d="M69 725h114v-435q0 -107 40 -157t139 -50q98 0 139 53t41 162v427h114v-421q0 -166 -68.5 -241.5t-225.5 -75.5q-156 0 -224.5 70.5t-68.5 240.5v427z" />
    <glyph glyph-name="V" unicode="V" horiz-adv-x="638" 
d="M6 725h125l193 -598l188 598h120l-247 -725h-129z" />
    <glyph glyph-name="W" unicode="W" horiz-adv-x="910" 
d="M522 725l134 -586l122 586h120l-175 -725h-137l-131 577l-129 -577h-137l-178 725h125l128 -586l125 586h133z" />
    <glyph glyph-name="X" unicode="X" horiz-adv-x="659" 
d="M-5 0l268 372l-250 353h136l182 -258l186 258h129l-250 -348l268 -377h-136l-201 282l-203 -282h-129z" />
    <glyph glyph-name="Y" unicode="Y" horiz-adv-x="633" 
d="M-2 725h127l190 -340l194 340h126l-266 -444v-281h-114v283z" />
    <glyph glyph-name="Z" unicode="Z" horiz-adv-x="630" 
d="M588 725v-95l-416 -531h430v-99h-567v95l417 531h-385v99h521z" />
    <glyph glyph-name="bracketleft" unicode="[" horiz-adv-x="322" 
d="M76 725h234v-84h-136v-732h136v-84h-234v900z" />
    <glyph glyph-name="backslash" unicode="\" horiz-adv-x="381" 
d="M100 725l284 -725h-103l-283 725h102z" />
    <glyph glyph-name="bracketright" unicode="]" horiz-adv-x="322" 
d="M12 725h234v-900h-234v84h137v732h-137v84z" />
    <glyph glyph-name="asciicircum" unicode="^" horiz-adv-x="474" 
d="M279 725l204 -387h-109l-139 266l-137 -266h-108l201 387h88z" />
    <glyph glyph-name="underscore" unicode="_" horiz-adv-x="468" 
d="M438 -96h-409v96h409v-96z" />
    <glyph glyph-name="grave" unicode="`" horiz-adv-x="264" 
d="M158 609l-136 116h128l92 -116h-84z" />
    <glyph glyph-name="a" unicode="a" horiz-adv-x="564" 
d="M406 217v39q-134 -13 -194.5 -36.5t-60.5 -72.5q0 -37 27 -58.5t75 -21.5q68 0 110.5 37t42.5 113zM230 -13q-84 0 -138 43t-54 115q0 32 12 58t36.5 44.5t54.5 32.5t73.5 24t87 16.5t99.5 12.5v11q0 127 -116 127q-111 0 -117 -103h-105q6 85 69 134t157 49
q218 0 217 -228q0 -5 -1 -60.5t-1 -68.5q0 -122 15 -194h-100q-5 28 -9 71q-49 -84 -180 -84z" />
    <glyph glyph-name="b" unicode="b" horiz-adv-x="607" 
d="M170 268q0 -95 42 -144.5t106 -49.5q66 0 105.5 52t39.5 142t-39.5 141.5t-105.5 51.5q-64 0 -106 -49t-42 -144zM70 725h104v-266q52 89 168 89q98 0 165 -76t67 -204t-67.5 -204.5t-164.5 -76.5q-116 0 -168 89v-76h-104v725z" />
    <glyph glyph-name="c" unicode="c" horiz-adv-x="559" 
d="M293 548q90 0 155.5 -55.5t77.5 -136.5h-104q-8 46 -45.5 74.5t-88.5 28.5q-61 0 -102.5 -48.5t-41.5 -141.5q0 -94 41.5 -143.5t102.5 -49.5q51 0 89 28t49 75h105q-16 -84 -85.5 -138t-159.5 -54q-115 0 -184 78.5t-69 202.5q0 121 71.5 200.5t188.5 79.5z" />
    <glyph glyph-name="d" unicode="d" horiz-adv-x="607" 
d="M433 459v266h104v-725h-104v76q-52 -89 -168 -89q-97 0 -164.5 76.5t-67.5 204.5t67 204t165 76q116 0 168 -89zM437 268q0 95 -42 144t-106 49q-66 0 -105.5 -51.5t-39.5 -141.5t39.5 -142t105.5 -52q64 0 106 49.5t42 144.5z" />
    <glyph glyph-name="e" unicode="e" horiz-adv-x="582" 
d="M297 76q104 0 141 82h105q-20 -72 -83 -121.5t-159 -49.5q-125 0 -196.5 80.5t-71.5 202.5q0 124 74.5 201t190.5 77q122 0 191 -88.5t61 -222.5h-410q8 -75 50.5 -118t106.5 -43zM297 463q-134 0 -155 -144h300q-2 61 -42.5 102.5t-102.5 41.5z" />
    <glyph glyph-name="f" unicode="f" horiz-adv-x="318" 
d="M89 538v36q0 89 33.5 120t127.5 31h47v-83h-40q-40 0 -52 -12.5t-12 -54.5v-37h104v-79h-104v-459h-104v459h-75v79h75z" />
    <glyph glyph-name="g" unicode="g" horiz-adv-x="601" 
d="M428 459v79h104v-475q0 -131 -58 -189q-62 -65 -188 -65q-94 0 -153.5 41.5t-71.5 123.5h107q9 -39 36 -58.5t84 -19.5q74 0 108 39q32 35 32 106v57q-52 -89 -166 -89q-98 0 -163.5 72.5t-65.5 197.5q0 124 65.5 196.5t163.5 72.5q114 0 166 -89zM432 279q0 91 -41 137
t-105 46q-66 0 -104 -48.5t-38 -134.5q0 -87 38 -136t104 -49q64 0 105 47t41 138z" />
    <glyph glyph-name="h" unicode="h" horiz-adv-x="583" 
d="M174 725v-265q51 88 169 88q180 0 180 -209v-339h-104v311q0 33 -3.5 56.5t-14.5 46.5t-34 35t-59 12q-67 0 -100.5 -44.5t-33.5 -127.5v-289h-104v725h104z" />
    <glyph glyph-name="i" unicode="i" horiz-adv-x="244" 
d="M70 538h104v-538h-104v538zM70 725h104v-115h-104v115z" />
    <glyph glyph-name="j" unicode="j" horiz-adv-x="244" 
d="M70 -21v559h104v-556q0 -93 -28.5 -125t-112.5 -32h-43v84h24q35 0 45.5 13.5t10.5 56.5zM70 725h104v-115h-104v115z" />
    <glyph glyph-name="k" unicode="k" horiz-adv-x="519" 
d="M70 725h104v-417l214 230h127l-209 -222l224 -316h-124l-171 241l-61 -65v-176h-104v725z" />
    <glyph glyph-name="l" unicode="l" horiz-adv-x="244" 
d="M174 725v-725h-104v725h104z" />
    <glyph glyph-name="m" unicode="m" horiz-adv-x="903" 
d="M174 289v-289h-104v538h104v-78q51 88 159 88q118 0 156 -95q63 95 178 95q175 0 175 -209v-339h-104v311q0 70 -21.5 110t-84.5 40q-61 0 -92.5 -45t-31.5 -127v-289h-104v311q0 70 -21.5 110t-84.5 40q-124 0 -124 -172z" />
    <glyph glyph-name="n" unicode="n" horiz-adv-x="583" 
d="M174 538v-78q51 88 169 88q180 0 180 -209v-339h-104v311q0 33 -3.5 56.5t-14.5 46.5t-34 35t-59 12q-67 0 -100.5 -44.5t-33.5 -127.5v-289h-104v538h104z" />
    <glyph glyph-name="o" unicode="o" horiz-adv-x="591" 
d="M144 267q0 -93 44 -142.5t107 -49.5q64 0 108 49.5t44 142.5q0 94 -43.5 143.5t-108.5 49.5q-64 0 -107.5 -48.5t-43.5 -144.5zM295 548q67 0 125 -28.5t97.5 -94t39.5 -158.5q0 -136 -78 -208t-184 -72q-67 0 -124.5 28.5t-97 94t-39.5 157.5q0 93 39.5 158.5t97 94
t124.5 28.5z" />
    <glyph glyph-name="p" unicode="p" horiz-adv-x="607" 
d="M70 538h104v-79q52 89 168 89q98 0 165 -76t67 -204t-67.5 -204.5t-164.5 -76.5q-116 0 -168 89v-251h-104v713zM170 268q0 -95 42 -144.5t106 -49.5q66 0 105.5 52t39.5 142t-39.5 141.5t-105.5 51.5q-64 0 -106 -49t-42 -144z" />
    <glyph glyph-name="q" unicode="q" horiz-adv-x="607" 
d="M433 459v79h104v-713h-104v251q-52 -89 -168 -89q-97 0 -164.5 76.5t-67.5 204.5t67 204t165 76q116 0 168 -89zM437 268q0 95 -42 144t-106 49q-66 0 -105.5 -51.5t-39.5 -141.5t39.5 -142t105.5 -52q64 0 106 49.5t42 144.5z" />
    <glyph glyph-name="r" unicode="r" horiz-adv-x="362" 
d="M350 539v-108q-28 3 -54 3q-62 0 -92 -35t-30 -117v-282h-104v538h102v-95q44 95 149 97q20 0 29 -1z" />
    <glyph glyph-name="s" unicode="s" horiz-adv-x="525" 
d="M479 388h-103q-21 77 -122 77q-42 0 -74 -17t-32 -48q0 -29 18 -43.5t57 -23.5l77 -15q91 -19 141 -53.5t50 -106.5q0 -79 -64.5 -125t-161.5 -46q-99 0 -160.5 50.5t-71.5 129.5h106q24 -97 129 -97q52 0 85.5 20.5t33.5 55.5q0 61 -103 81l-81 16q-72 14 -114.5 48.5
t-42.5 104.5q0 69 63.5 111t154.5 42q83 0 141.5 -42t73.5 -119z" />
    <glyph glyph-name="t" unicode="t" horiz-adv-x="332" 
d="M91 538v138h104v-138h106v-79h-106v-307q0 -42 11.5 -55.5t49.5 -13.5h44v-83h-76q-81 0 -107 27t-26 111v321h-82v79h82z" />
    <glyph glyph-name="u" unicode="u" horiz-adv-x="576" 
d="M402 0v76q-50 -89 -164 -89q-176 0 -176 209v342h104v-314q0 -33 3.5 -56.5t14.5 -46t33 -34.5t56 -12q65 0 97.5 44.5t32.5 126.5v292h104v-538h-105z" />
    <glyph glyph-name="v" unicode="v" horiz-adv-x="494" 
d="M115 538l136 -399l135 399h108l-199 -538h-95l-200 538h115z" />
    <glyph glyph-name="w" unicode="w" horiz-adv-x="727" 
d="M209 148l100 390h108l100 -390l92 390h113l-150 -538h-97l-113 416l-110 -416h-98l-149 538h113z" />
    <glyph glyph-name="x" unicode="x" horiz-adv-x="527" 
d="M506 538l-184 -257l199 -281h-124l-137 194l-137 -194h-117l197 275l-185 263h123l124 -176l126 176h115z" />
    <glyph glyph-name="y" unicode="y" horiz-adv-x="480" 
d="M93 -175h-50v83h41q46 0 67 14t39 67l4 12l-194 537h115l130 -401l127 401h108l-190 -550q-35 -99 -71.5 -131t-125.5 -32z" />
    <glyph glyph-name="z" unicode="z" horiz-adv-x="491" 
d="M30 0v85l300 368h-280v85h406v-85l-300 -368h306v-85h-432z" />
    <glyph glyph-name="braceleft" unicode="{" horiz-adv-x="301" 
d="M289 -175h-44q-93 0 -127 32.5t-34 122.5v151q0 52 -15 77.5t-61 25.5v83q46 0 61 25.5t15 77.5v150q0 90 34 122.5t127 32.5h44v-87h-37q-40 0 -52.5 -14t-12.5 -56v-155q0 -65 -21.5 -95t-63.5 -41v-3q42 -11 63.5 -41t21.5 -95v-156q0 -42 12.5 -56.5t52.5 -14.5h37
v-86z" />
    <glyph glyph-name="bar" unicode="|" horiz-adv-x="252" 
d="M80 725h92v-815h-92v815z" />
    <glyph glyph-name="braceright" unicode="}" horiz-adv-x="301" 
d="M12 -175v86h37q39 0 52.5 14.5t13.5 56.5v156q0 65 21 95t63 41v3q-43 10 -63.5 40.5t-20.5 95.5v155q0 42 -13 56t-53 14h-37v87h44q93 0 127 -32.5t34 -122.5v-150q0 -52 15.5 -77.5t61.5 -25.5v-83q-46 0 -61.5 -25.5t-15.5 -77.5v-151q0 -90 -34 -122.5t-127 -32.5
h-44z" />
    <glyph glyph-name="asciitilde" unicode="~" 
d="M446 287q27 0 45 17.5t20 51.5h89q-4 -74 -43.5 -116.5t-109.5 -42.5q-41 0 -111.5 34t-102.5 34q-62 0 -66 -68h-89q4 74 43.5 116.5t109.5 42.5q50 0 120 -34.5t95 -34.5z" />
    <glyph glyph-name="uni00A0" unicode="&#xa0;" horiz-adv-x="234" 
 />
    <glyph glyph-name="exclamdown" unicode="&#xa1;" horiz-adv-x="243" 
d="M175 23v-198h-108v198l21 303h67zM184 413h-125v125h125v-125z" />
    <glyph glyph-name="cent" unicode="&#xa2;" horiz-adv-x="551" 
d="M260 626h47v-78q87 -6 145 -60t70 -132h-104q-8 43 -37.5 70t-73.5 32v-381q46 5 76 31.5t39 70.5h105q-16 -80 -75 -131.5t-145 -59.5v-83h-47v83q-105 8 -166 85.5t-61 194.5q0 114 61 191t166 87v80zM144 269q0 -84 31.5 -132.5t84.5 -58.5v378q-53 -9 -84.5 -56.5
t-31.5 -130.5z" />
    <glyph glyph-name="sterling" unicode="&#xa3;" horiz-adv-x="575" 
d="M301 654q-54 0 -93 -25.5t-39 -77.5q0 -53 53 -155h185v-67h-155q13 -43 13 -68q0 -51 -29 -93.5t-72 -69.5l1 -2q36 14 67 14q26 0 78.5 -17.5t88.5 -17.5q53 0 123 28l31 -83q-61 -36 -147 -36q-36 0 -102 20.5t-106 20.5q-69 0 -142 -41l-36 80q53 23 95.5 70
t42.5 115q0 38 -17 80h-123v67h91q-18 37 -25.5 53t-16 47t-8.5 59q0 63 37.5 105.5t90.5 60t117 17.5q118 0 184.5 -65t64.5 -174h-106q0 82 -40 118.5t-106 36.5z" />
    <glyph glyph-name="currency" unicode="&#xa4;" horiz-adv-x="636" 
d="M79 346q0 78 44 139l-69 70l49 49l68 -68q63 49 144 49q83 0 147 -51l71 70l49 -49l-72 -72q44 -64 44 -137q0 -76 -44 -137l72 -71l-49 -49l-71 70q-65 -49 -147 -49q-81 0 -143 48l-69 -69l-49 49l69 70q-44 61 -44 138zM170 346q0 -64 41 -108.5t103 -44.5
q66 0 108.5 44t42.5 109q0 67 -42.5 112t-108.5 45q-62 0 -103 -45t-41 -112z" />
    <glyph glyph-name="yen" unicode="&#xa5;" horiz-adv-x="623" 
d="M536 104h-176v-104h-106v104h-168v71h168v77h-168v71h139l-229 402h123l192 -361l194 361h122l-236 -402h145v-71h-176v-77h176v-71z" />
    <glyph glyph-name="brokenbar" unicode="&#xa6;" horiz-adv-x="231" 
d="M70 725h92v-305h-92v305zM70 215h92v-305h-92v305z" />
    <glyph glyph-name="section" unicode="&#xa7;" horiz-adv-x="589" 
d="M293 -106q46 0 74 19t28 54q0 31 -20 53.5t-75 52.5l-128 68q-136 70 -136 174q0 49 33.5 86t87.5 59q-72 52 -72 132q0 69 60 107.5t141 38.5q91 0 148.5 -45t68.5 -123h-104q-16 85 -116 85q-43 0 -68.5 -16t-25.5 -42t17.5 -45t61.5 -43l137 -73q77 -41 113.5 -78.5
t36.5 -94.5q0 -52 -33 -92.5t-89 -64.5q67 -55 67 -125q0 -79 -60.5 -124.5t-149.5 -45.5q-96 0 -156.5 52.5t-66.5 142.5h103q17 -112 123 -112zM350 354l-116 61q-41 -14 -69 -37t-28 -54q0 -30 18 -51.5t60 -42.5l136 -72l10 -6q90 37 90 94q0 31 -23.5 55.5t-77.5 52.5z
" />
    <glyph glyph-name="dieresis" unicode="&#xa8;" horiz-adv-x="375" 
d="M22 620v105h98v-105h-98zM254 725h99v-105h-99v105z" />
    <glyph glyph-name="copyright" unicode="&#xa9;" horiz-adv-x="825" 
d="M38 361q0 165 108 271t267 106q158 0 266 -106t108 -271q0 -164 -108 -269t-266 -105q-159 0 -267 105t-108 269zM115 361q0 -134 85 -219.5t213 -85.5q129 0 213.5 85t84.5 220q0 137 -84 222t-214 85q-128 0 -213 -85.5t-85 -221.5zM412 232q80 0 100 75l84 -21
q-17 -54 -65 -89.5t-119 -35.5q-92 0 -142 55.5t-50 152.5q0 95 52.5 150t142.5 55q70 0 116.5 -37t61.5 -96l-83 -23q-9 41 -35 63t-63 22q-46 0 -74 -34t-28 -100q0 -67 27.5 -102t74.5 -35z" />
    <glyph glyph-name="ordfeminine" unicode="&#xaa;" horiz-adv-x="348" 
d="M136 431q-48 0 -78 24t-30 64q0 53 53 77t148 31v11q0 56 -59 56q-54 0 -58 -49h-75q3 46 40.5 76t98.5 30q132 0 132 -130q0 -5 -0.5 -35.5t-0.5 -44.5q0 -68 6 -103h-75q0 6 -0.5 19t-0.5 21q-27 -47 -101 -47zM230 564v11q-67 -7 -93.5 -17.5t-26.5 -34.5
q0 -17 12.5 -26t32.5 -9q75 0 75 76z" />
    <glyph glyph-name="guillemotleft" unicode="&#xab;" horiz-adv-x="529" 
d="M172 44l-159 229l159 228h106l-143 -228l143 -229h-106zM396 44l-159 229l159 228h106l-143 -228l143 -229h-106z" />
    <glyph glyph-name="logicalnot" unicode="&#xac;" 
d="M493 333h-430v97h531v-333h-101v236z" />
    <glyph glyph-name="uni00AD" unicode="&#xad;" horiz-adv-x="413" 
d="M367 224h-322v96h322v-96z" />
    <glyph glyph-name="registered" unicode="&#xae;" horiz-adv-x="825" 
d="M38 361q0 165 108 271t267 106q158 0 266 -106t108 -271q0 -164 -108 -269t-266 -105q-159 0 -267 105t-108 269zM115 361q0 -134 85 -219.5t213 -85.5q129 0 213.5 85t84.5 220q0 137 -84 222t-214 85q-128 0 -213 -85.5t-85 -221.5zM502 176l-82 149h-71v-149h-89v399
h133q94 0 140 -26.5t46 -99.5q0 -75 -72 -107l94 -166h-99zM490 448q0 56 -80 56h-61v-110h64q77 0 77 54z" />
    <glyph glyph-name="macron" unicode="&#xaf;" horiz-adv-x="348" 
d="M326 632h-304v81h304v-81z" />
    <glyph glyph-name="degree" unicode="&#xb0;" horiz-adv-x="337" 
d="M18 587q0 63 44 107t106 44q63 0 107.5 -44t44.5 -107q0 -62 -44.5 -106.5t-107.5 -44.5q-62 0 -106 44.5t-44 106.5zM95 587q0 -33 20.5 -56t52.5 -23q33 0 54.5 23t21.5 56t-21.5 56t-54.5 23q-32 0 -52.5 -23t-20.5 -56z" />
    <glyph glyph-name="plusminus" unicode="&#xb1;" 
d="M288 385v146h102v-146h215v-97h-215v-148h-102v148h-215v97h215zM605 0h-532v96h532v-96z" />
    <glyph glyph-name="twosuperior" unicode="&#xb2;" horiz-adv-x="351" 
d="M179 853q62 0 100.5 -29t38.5 -81q0 -59 -50.5 -116.5t-149.5 -121.5h206v-67h-303v65q133 105 169 144q46 51 46 91q0 27 -16.5 41.5t-43.5 14.5q-30 0 -50 -20t-19 -64h-79q-2 65 39.5 104t111.5 39z" />
    <glyph glyph-name="threesuperior" unicode="&#xb3;" horiz-adv-x="366" 
d="M182 490q33 0 54 17.5t21 46.5q0 63 -95 63h-24v64h20q90 0 90 59q0 26 -19 40t-46 14q-68 0 -78 -70h-77q5 62 48 95.5t112 33.5q57 0 99 -27.5t42 -81.5q0 -29 -16 -52.5t-41 -37.5q31 -14 48.5 -40.5t17.5 -58.5q0 -60 -45.5 -92t-112.5 -32t-109.5 37t-47.5 99h77
q5 -34 26.5 -55.5t55.5 -21.5z" />
    <glyph glyph-name="acute" unicode="&#xb4;" horiz-adv-x="263" 
d="M241 725l-136 -116h-83l91 116h128z" />
    <glyph glyph-name="mu" unicode="&#xb5;" horiz-adv-x="578" 
d="M156 -175h-99q11 53 11 162v551h101v-305q0 -82 27 -120t86 -38q61 0 93.5 45.5t32.5 124.5v293h101v-538h-101v70q-46 -81 -123 -81q-76 0 -116 61v-56q0 -99 -13 -169z" />
    <glyph glyph-name="mu" unicode="&#x3bc;" horiz-adv-x="578" 
d="M156 -175h-99q11 53 11 162v551h101v-305q0 -82 27 -120t86 -38q61 0 93.5 45.5t32.5 124.5v293h101v-538h-101v70q-46 -81 -123 -81q-76 0 -116 61v-56q0 -99 -13 -169z" />
    <glyph glyph-name="paragraph" unicode="&#xb6;" horiz-adv-x="516" 
d="M0 542q0 87 61 135t176 48h210v-814h-78v742h-118v-742h-78v456q-71 7 -122 50.5t-51 124.5z" />
    <glyph glyph-name="periodcentered" unicode="&#xb7;" horiz-adv-x="243" 
d="M184 207h-125v125h125v-125z" />
    <glyph glyph-name="cedilla" unicode="&#xb8;" horiz-adv-x="248" 
d="M22 -176l16 41q30 -14 58 -14q60 0 60 31q0 30 -43 30q-24 0 -38 -9l-30 17l51 83h53l-32 -51q17 3 32 3q35 0 56 -18.5t21 -49.5q0 -37 -33.5 -59.5t-76.5 -22.5q-55 0 -94 19z" />
    <glyph glyph-name="onesuperior" unicode="&#xb9;" horiz-adv-x="236" 
d="M182 438h-80v297h-90v56q48 1 71.5 12t37.5 43h61v-408z" />
    <glyph glyph-name="ordmasculine" unicode="&#xba;" horiz-adv-x="359" 
d="M109 589q0 -47 19 -71.5t52 -24.5t52.5 24.5t19.5 71.5q0 97 -72 97q-32 0 -51.5 -25t-19.5 -72zM180 431q-65 0 -108.5 40.5t-43.5 117.5t43.5 118t108.5 41t109 -41t44 -118t-44 -117.5t-109 -40.5z" />
    <glyph glyph-name="guillemotright" unicode="&#xbb;" horiz-adv-x="528" 
d="M291 273l-159 -229h-105l143 229l-143 228h105zM515 273l-159 -229h-105l143 229l-143 228h105z" />
    <glyph glyph-name="onequarter" unicode="&#xbc;" horiz-adv-x="828" 
d="M182 317h-80v297h-90v56q48 1 71.5 12t37.5 43h61v-408zM149 0h-113l500 725h113zM666 305l-114 -145h114v145zM812 160v-67h-66v-93h-80v93h-201v62l203 253h78v-248h66z" />
    <glyph glyph-name="onehalf" unicode="&#xbd;" horiz-adv-x="800" 
d="M182 317h-80v297h-90v56q48 1 71.5 12t37.5 43h61v-408zM149 0h-113l500 725h113zM628 415q62 0 100.5 -29t38.5 -81q0 -59 -50.5 -116.5t-149.5 -121.5h206v-67h-303v65q133 105 169 144q46 51 46 91q0 27 -16.5 41.5t-43.5 14.5q-30 0 -50 -20t-19 -64h-79
q-2 65 39.5 104t111.5 39z" />
    <glyph glyph-name="threequarters" unicode="&#xbe;" horiz-adv-x="958" 
d="M182 369q33 0 54 17.5t21 46.5q0 63 -95 63h-24v64h20q90 0 90 59q0 26 -19 40t-46 14q-68 0 -78 -70h-77q5 62 48 95.5t112 33.5q57 0 99 -27.5t42 -81.5q0 -29 -16 -52.5t-41 -37.5q31 -14 48.5 -40.5t17.5 -58.5q0 -60 -45.5 -92t-112.5 -32t-109.5 37t-47.5 99h77
q5 -34 26.5 -55.5t55.5 -21.5zM279 0h-113l500 725h113zM796 305l-114 -145h114v145zM942 160v-67h-66v-93h-80v93h-201v62l203 253h78v-248h66z" />
    <glyph glyph-name="questiondown" unicode="&#xbf;" horiz-adv-x="506" 
d="M242 -189q-95 0 -162.5 45.5t-67.5 131.5q0 63 34.5 106.5t93.5 84.5q4 3 16 11t15.5 11t13 10t13 11t10 11t9 13t6 14t4.5 17t1 19v31h105v-34q0 -28 -8 -52t-15 -37.5t-29.5 -33t-29 -24.5t-36.5 -26q-26 -18 -37.5 -27t-28 -25.5t-23 -34.5t-6.5 -41q0 -44 35.5 -69
t91.5 -25q69 0 104 39.5t38 96.5h103q0 -99 -70.5 -161t-179.5 -62zM342 413h-125v125h125v-125z" />
    <glyph glyph-name="Agrave" unicode="&#xc0;" horiz-adv-x="668" 
d="M0 0l269 725h126l273 -725h-124l-57 159h-315l-56 -159h-116zM328 601l-122 -346h246zM290 773l-156 113h140l109 -113h-93z" />
    <glyph glyph-name="Aacute" unicode="&#xc1;" horiz-adv-x="668" 
d="M0 0l269 725h126l273 -725h-124l-57 159h-315l-56 -159h-116zM328 601l-122 -346h246zM534 886l-152 -113h-97l108 113h141z" />
    <glyph glyph-name="Acircumflex" unicode="&#xc2;" horiz-adv-x="668" 
d="M0 0l269 725h126l273 -725h-124l-57 159h-315l-56 -159h-116zM328 601l-122 -346h246zM382 886l133 -113h-114l-67 54l-68 -54h-114l136 113h94z" />
    <glyph glyph-name="Atilde" unicode="&#xc3;" horiz-adv-x="668" 
d="M0 0l269 725h126l273 -725h-124l-57 159h-315l-56 -159h-116zM328 601l-122 -346h246zM397 843q41 0 49 42h77q-20 -113 -122 -113q-33 0 -74 22t-58 22q-41 0 -46 -42h-78q10 60 43.5 86.5t77.5 26.5q34 0 72.5 -22t58.5 -22z" />
    <glyph glyph-name="Adieresis" unicode="&#xc4;" horiz-adv-x="668" 
d="M0 0l269 725h126l273 -725h-124l-57 159h-315l-56 -159h-116zM328 601l-122 -346h246zM169 881h98v-103h-98v103zM401 881h99v-103h-99v103z" />
    <glyph glyph-name="Aring" unicode="&#xc5;" horiz-adv-x="668" 
d="M0 0l269 725h126l273 -725h-124l-57 159h-315l-56 -159h-116zM328 601l-122 -346h246zM334 935q39 0 65 -23.5t26 -61.5q0 -37 -26 -61t-65 -24q-38 0 -64 24t-26 61t26 61t64 24zM334 893q-18 0 -30.5 -12.5t-12.5 -30.5t12.5 -30t30.5 -12t30.5 12t12.5 30t-12.5 30.5
t-30.5 12.5z" />
    <glyph glyph-name="AE" unicode="&#xc6;" horiz-adv-x="1033" 
d="M502 725h502v-97h-388v-207h366v-96h-366v-228h388v-97h-502v153h-285l-106 -153h-123zM502 561l-218 -311h218v311z" />
    <glyph glyph-name="Ccedilla" unicode="&#xc7;" horiz-adv-x="726" 
d="M583 236h110q-24 -119 -107 -184t-206 -65q-155 0 -243.5 103.5t-88.5 273.5q0 171 91.5 272.5t247.5 101.5q118 0 200 -65.5t103 -183.5h-110q-18 73 -68.5 113.5t-129.5 40.5q-96 0 -156.5 -73.5t-60.5 -205.5q0 -131 61 -206.5t157 -75.5q80 0 131 40.5t69 113.5z
M269 -176l16 41q30 -14 58 -14q60 0 60 31q0 30 -43 30q-24 0 -38 -9l-30 17l51 83h53l-32 -51q16 3 32 3q35 0 56 -18.5t21 -49.5q0 -37 -33.5 -59.5t-76.5 -22.5q-55 0 -94 19z" />
    <glyph glyph-name="Egrave" unicode="&#xc8;" horiz-adv-x="614" 
d="M80 0v725h502v-97h-388v-207h366v-96h-366v-228h388v-97h-502zM312 773l-156 113h140l109 -113h-93z" />
    <glyph glyph-name="Eacute" unicode="&#xc9;" horiz-adv-x="614" 
d="M80 0v725h502v-97h-388v-207h366v-96h-366v-228h388v-97h-502zM526 886l-152 -113h-97l108 113h141z" />
    <glyph glyph-name="Ecircumflex" unicode="&#xca;" horiz-adv-x="614" 
d="M80 0v725h502v-97h-388v-207h366v-96h-366v-228h388v-97h-502zM387 886l133 -113h-114l-67 54l-68 -54h-114l136 113h94z" />
    <glyph glyph-name="Edieresis" unicode="&#xcb;" horiz-adv-x="614" 
d="M80 0v725h502v-97h-388v-207h366v-96h-366v-228h388v-97h-502zM171 881h98v-103h-98v103zM403 881h99v-103h-99v103z" />
    <glyph glyph-name="Igrave" unicode="&#xcc;" horiz-adv-x="274" 
d="M194 725v-725h-114v725h114zM94 773l-156 113h140l109 -113h-93z" />
    <glyph glyph-name="Iacute" unicode="&#xcd;" horiz-adv-x="274" 
d="M194 725v-725h-114v725h114zM337 886l-152 -113h-97l108 113h141z" />
    <glyph glyph-name="Icircumflex" unicode="&#xce;" horiz-adv-x="274" 
d="M194 725v-725h-114v725h114zM186 886l133 -113h-114l-67 54l-68 -54h-114l136 113h94z" />
    <glyph glyph-name="Idieresis" unicode="&#xcf;" horiz-adv-x="274" 
d="M194 725v-725h-114v725h114zM-27 881h98v-103h-98v103zM205 881h99v-103h-99v103z" />
    <glyph glyph-name="Eth" unicode="&#xd0;" horiz-adv-x="734" 
d="M89 725h198q91 0 160.5 -18t125 -58t85 -112t29.5 -174t-29.5 -174.5t-85 -112.5t-125 -58t-160.5 -18h-198v319h-73v97h73v309zM570 363q0 69 -16.5 119t-42 78t-65.5 44.5t-77 21.5t-86 5h-80v-215h147v-97h-147v-225h80q49 0 86 5t77 21.5t65.5 44.5t42 78.5
t16.5 119.5z" />
    <glyph glyph-name="Ntilde" unicode="&#xd1;" horiz-adv-x="751" 
d="M671 0h-159l-320 600v-600h-112v725h159l320 -599v599h112v-725zM458 843q42 0 49 42h77q-20 -113 -122 -113q-32 0 -73 22t-59 22q-42 0 -46 -42h-78q10 60 43.5 86.5t77.5 26.5q34 0 72.5 -22t58.5 -22z" />
    <glyph glyph-name="Ograve" unicode="&#xd2;" horiz-adv-x="781" 
d="M165 363q0 -132 63.5 -206.5t162.5 -74.5q97 0 161 75t64 206q0 132 -63.5 206t-161.5 74q-99 0 -162.5 -74t-63.5 -206zM733 363q0 -168 -93 -272t-249 -104q-157 0 -250 104t-93 272q0 167 93 271t250 104q156 0 249 -104t93 -271zM347 773l-156 113h140l109 -113h-93z
" />
    <glyph glyph-name="Oacute" unicode="&#xd3;" horiz-adv-x="781" 
d="M165 363q0 -132 63.5 -206.5t162.5 -74.5q97 0 161 75t64 206q0 132 -63.5 206t-161.5 74q-99 0 -162.5 -74t-63.5 -206zM733 363q0 -168 -93 -272t-249 -104q-157 0 -250 104t-93 272q0 167 93 271t250 104q156 0 249 -104t93 -271zM591 886l-152 -113h-97l108 113h141z
" />
    <glyph glyph-name="Ocircumflex" unicode="&#xd4;" horiz-adv-x="781" 
d="M165 363q0 -132 63.5 -206.5t162.5 -74.5q97 0 161 75t64 206q0 132 -63.5 206t-161.5 74q-99 0 -162.5 -74t-63.5 -206zM733 363q0 -168 -93 -272t-249 -104q-157 0 -250 104t-93 272q0 167 93 271t250 104q156 0 249 -104t93 -271zM439 886l133 -113h-114l-67 54
l-68 -54h-114l136 113h94z" />
    <glyph glyph-name="Otilde" unicode="&#xd5;" horiz-adv-x="781" 
d="M165 363q0 -132 63.5 -206.5t162.5 -74.5q97 0 161 75t64 206q0 132 -63.5 206t-161.5 74q-99 0 -162.5 -74t-63.5 -206zM733 363q0 -168 -93 -272t-249 -104q-157 0 -250 104t-93 272q0 167 93 271t250 104q156 0 249 -104t93 -271zM454 843q42 0 49 42h77
q-20 -113 -122 -113q-32 0 -73 22t-59 22q-42 0 -46 -42h-78q10 60 43.5 86.5t77.5 26.5q34 0 72.5 -22t58.5 -22z" />
    <glyph glyph-name="Odieresis" unicode="&#xd6;" horiz-adv-x="781" 
d="M165 363q0 -132 63.5 -206.5t162.5 -74.5q97 0 161 75t64 206q0 132 -63.5 206t-161.5 74q-99 0 -162.5 -74t-63.5 -206zM733 363q0 -168 -93 -272t-249 -104q-157 0 -250 104t-93 272q0 167 93 271t250 104q156 0 249 -104t93 -271zM226 881h98v-103h-98v103zM458 881
h99v-103h-99v103z" />
    <glyph glyph-name="multiply" unicode="&#xd7;" 
d="M574 99l-68 -69l-170 170l-165 -165l-67 66l165 166l-165 165l69 69l165 -164l166 164l66 -66l-165 -166z" />
    <glyph glyph-name="Oslash" unicode="&#xd8;" horiz-adv-x="781" 
d="M733 363q0 -168 -93 -272t-249 -104q-131 0 -219 74l-66 -77l-44 39l68 80q-82 104 -82 260q0 167 93 271t250 104q128 0 218 -74l57 67l44 -38l-60 -71q83 -102 83 -259zM616 363q0 102 -40 172l-335 -393q59 -60 150 -60q97 0 161 75t64 206zM165 363q0 -103 39 -172
l336 392q-61 60 -149 60q-99 0 -162.5 -74t-63.5 -206z" />
    <glyph glyph-name="Ugrave" unicode="&#xd9;" horiz-adv-x="724" 
d="M69 725h114v-435q0 -107 40 -157t139 -50q98 0 139 53t41 162v427h114v-421q0 -166 -68.5 -241.5t-225.5 -75.5q-156 0 -224.5 70.5t-68.5 240.5v427zM332 773l-156 113h140l109 -113h-93z" />
    <glyph glyph-name="Uacute" unicode="&#xda;" horiz-adv-x="724" 
d="M69 725h114v-435q0 -107 40 -157t139 -50q98 0 139 53t41 162v427h114v-421q0 -166 -68.5 -241.5t-225.5 -75.5q-156 0 -224.5 70.5t-68.5 240.5v427zM548 886l-152 -113h-97l108 113h141z" />
    <glyph glyph-name="Ucircumflex" unicode="&#xdb;" horiz-adv-x="724" 
d="M69 725h114v-435q0 -107 40 -157t139 -50q98 0 139 53t41 162v427h114v-421q0 -166 -68.5 -241.5t-225.5 -75.5q-156 0 -224.5 70.5t-68.5 240.5v427zM410 886l133 -113h-114l-67 54l-68 -54h-114l136 113h94z" />
    <glyph glyph-name="Udieresis" unicode="&#xdc;" horiz-adv-x="724" 
d="M69 725h114v-435q0 -107 40 -157t139 -50q98 0 139 53t41 162v427h114v-421q0 -166 -68.5 -241.5t-225.5 -75.5q-156 0 -224.5 70.5t-68.5 240.5v427zM197 881h98v-103h-98v103zM429 881h99v-103h-99v103z" />
    <glyph glyph-name="Yacute" unicode="&#xdd;" horiz-adv-x="633" 
d="M-2 725h127l190 -340l194 340h126l-266 -444v-281h-114v283zM506 886l-152 -113h-97l108 113h141z" />
    <glyph glyph-name="Thorn" unicode="&#xde;" horiz-adv-x="620" 
d="M195 602h104q69 0 119.5 -9.5t94.5 -33t67 -70.5t23 -116q0 -65 -22.5 -110.5t-65 -70t-94.5 -35t-121 -10.5h-105v-147h-115v725h115v-123zM303 504h-108v-260h111q88 0 134 26t46 102q0 43 -14 70.5t-42 40.5t-56.5 17t-70.5 4z" />
    <glyph glyph-name="germandbls" unicode="&#xdf;" horiz-adv-x="639" 
d="M174 0h-104v485q0 126 56 184q64 68 203 68q102 0 166.5 -46.5t64.5 -128.5q0 -109 -100 -153q65 -17 104 -65t39 -130q0 -115 -75 -171t-191 -56q-54 0 -111 11l19 94q45 -15 94 -15q67 0 110.5 33t43.5 103q0 141 -196 141h-7v91h5q160 0 160 108q0 47 -34.5 74.5
t-93.5 27.5q-88 0 -123 -46q-30 -36 -30 -123v-486z" />
    <glyph glyph-name="agrave" unicode="&#xe0;" horiz-adv-x="564" 
d="M406 217v39q-134 -13 -194.5 -36.5t-60.5 -72.5q0 -37 27 -58.5t75 -21.5q68 0 110.5 37t42.5 113zM230 -13q-84 0 -138 43t-54 115q0 32 12 58t36.5 44.5t54.5 32.5t73.5 24t87 16.5t99.5 12.5v11q0 127 -116 127q-111 0 -117 -103h-105q6 85 69 134t157 49
q218 0 217 -228q0 -5 -1 -60.5t-1 -68.5q0 -122 15 -194h-100q-5 28 -9 71q-49 -84 -180 -84zM250 609l-136 116h128l92 -116h-84z" />
    <glyph glyph-name="aacute" unicode="&#xe1;" horiz-adv-x="564" 
d="M406 217v39q-134 -13 -194.5 -36.5t-60.5 -72.5q0 -37 27 -58.5t75 -21.5q68 0 110.5 37t42.5 113zM230 -13q-84 0 -138 43t-54 115q0 32 12 58t36.5 44.5t54.5 32.5t73.5 24t87 16.5t99.5 12.5v11q0 127 -116 127q-111 0 -117 -103h-105q6 85 69 134t157 49
q218 0 217 -228q0 -5 -1 -60.5t-1 -68.5q0 -122 15 -194h-100q-5 28 -9 71q-49 -84 -180 -84zM454 725l-136 -116h-83l91 116h128z" />
    <glyph glyph-name="acircumflex" unicode="&#xe2;" horiz-adv-x="564" 
d="M406 217v39q-134 -13 -194.5 -36.5t-60.5 -72.5q0 -37 27 -58.5t75 -21.5q68 0 110.5 37t42.5 113zM230 -13q-84 0 -138 43t-54 115q0 32 12 58t36.5 44.5t54.5 32.5t73.5 24t87 16.5t99.5 12.5v11q0 127 -116 127q-111 0 -117 -103h-105q6 85 69 134t157 49
q218 0 217 -228q0 -5 -1 -60.5t-1 -68.5q0 -122 15 -194h-100q-5 28 -9 71q-49 -84 -180 -84zM335 725l134 -116h-102l-79 51l-80 -51h-102l137 116h92z" />
    <glyph glyph-name="atilde" unicode="&#xe3;" horiz-adv-x="564" 
d="M406 217v39q-134 -13 -194.5 -36.5t-60.5 -72.5q0 -37 27 -58.5t75 -21.5q68 0 110.5 37t42.5 113zM230 -13q-84 0 -138 43t-54 115q0 32 12 58t36.5 44.5t54.5 32.5t73.5 24t87 16.5t99.5 12.5v11q0 127 -116 127q-111 0 -117 -103h-105q6 85 69 134t157 49
q218 0 217 -228q0 -5 -1 -60.5t-1 -68.5q0 -122 15 -194h-100q-5 28 -9 71q-49 -84 -180 -84zM347 685q41 0 49 45h77q-9 -64 -43.5 -92t-78.5 -28q-33 0 -73.5 23.5t-59.5 23.5q-40 0 -46 -44h-78q9 62 43 90.5t79 28.5q32 0 71 -23.5t60 -23.5z" />
    <glyph glyph-name="adieresis" unicode="&#xe4;" horiz-adv-x="564" 
d="M406 217v39q-134 -13 -194.5 -36.5t-60.5 -72.5q0 -37 27 -58.5t75 -21.5q68 0 110.5 37t42.5 113zM230 -13q-84 0 -138 43t-54 115q0 32 12 58t36.5 44.5t54.5 32.5t73.5 24t87 16.5t99.5 12.5v11q0 127 -116 127q-111 0 -117 -103h-105q6 85 69 134t157 49
q218 0 217 -228q0 -5 -1 -60.5t-1 -68.5q0 -122 15 -194h-100q-5 28 -9 71q-49 -84 -180 -84zM117 620v105h98v-105h-98zM349 725h99v-105h-99v105z" />
    <glyph glyph-name="aring" unicode="&#xe5;" horiz-adv-x="564" 
d="M406 217v39q-134 -13 -194.5 -36.5t-60.5 -72.5q0 -37 27 -58.5t75 -21.5q68 0 110.5 37t42.5 113zM230 -13q-84 0 -138 43t-54 115q0 32 12 58t36.5 44.5t54.5 32.5t73.5 24t87 16.5t99.5 12.5v11q0 127 -116 127q-111 0 -117 -103h-105q6 85 69 134t157 49
q218 0 217 -228q0 -5 -1 -60.5t-1 -68.5q0 -122 15 -194h-100q-5 28 -9 71q-49 -84 -180 -84zM287 774q39 0 65.5 -24t26.5 -62t-26.5 -62t-65.5 -24t-65 24t-26 62t26 62t65 24zM287 731q-17 0 -29.5 -12.5t-12.5 -30.5t12 -29.5t30 -11.5t30.5 11.5t12.5 29.5t-12.5 30.5
t-30.5 12.5z" />
    <glyph glyph-name="ae" unicode="&#xe6;" horiz-adv-x="937" 
d="M652 463q-134 0 -155 -144h300q-2 61 -42.5 102.5t-102.5 41.5zM406 217v39q-134 -13 -194.5 -36.5t-60.5 -72.5q0 -37 27 -58.5t75 -21.5q68 0 110.5 37t42.5 113zM793 158h105q-20 -72 -83 -121.5t-159 -49.5q-144 0 -204 111q-66 -111 -222 -111q-84 0 -138 43
t-54 115q0 32 12 58t36.5 44.5t54.5 32.5t73.5 24t87 16.5t99.5 12.5v11q0 127 -116 127q-111 0 -117 -103h-105q6 85 69 134t157 49q136 0 176 -95q62 92 188 92q122 0 191 -88.5t61 -222.5h-410q8 -74 51 -117.5t106 -43.5q104 0 141 82z" />
    <glyph glyph-name="ccedilla" unicode="&#xe7;" horiz-adv-x="559" 
d="M293 548q90 0 155.5 -55.5t77.5 -136.5h-104q-8 46 -45.5 74.5t-88.5 28.5q-61 0 -102.5 -48.5t-41.5 -141.5q0 -94 41.5 -143.5t102.5 -49.5q51 0 89 28t49 75h105q-16 -84 -85.5 -138t-159.5 -54q-115 0 -184 78.5t-69 202.5q0 121 71.5 200.5t188.5 79.5zM178 -176
l16 41q30 -14 58 -14q60 0 60 31q0 30 -43 30q-24 0 -38 -9l-30 17l51 83h53l-32 -51q17 3 32 3q35 0 56 -18.5t21 -49.5q0 -37 -33.5 -59.5t-76.5 -22.5q-55 0 -94 19z" />
    <glyph glyph-name="egrave" unicode="&#xe8;" horiz-adv-x="582" 
d="M297 76q104 0 141 82h105q-20 -72 -83 -121.5t-159 -49.5q-125 0 -196.5 80.5t-71.5 202.5q0 124 74.5 201t190.5 77q122 0 191 -88.5t61 -222.5h-410q8 -75 50.5 -118t106.5 -43zM297 463q-134 0 -155 -144h300q-2 61 -42.5 102.5t-102.5 41.5zM247 609l-136 116h128
l92 -116h-84z" />
    <glyph glyph-name="eacute" unicode="&#xe9;" horiz-adv-x="582" 
d="M297 76q104 0 141 82h105q-20 -72 -83 -121.5t-159 -49.5q-125 0 -196.5 80.5t-71.5 202.5q0 124 74.5 201t190.5 77q122 0 191 -88.5t61 -222.5h-410q8 -75 50.5 -118t106.5 -43zM297 463q-134 0 -155 -144h300q-2 61 -42.5 102.5t-102.5 41.5zM461 725l-136 -116h-83
l91 116h128z" />
    <glyph glyph-name="ecircumflex" unicode="&#xea;" horiz-adv-x="582" 
d="M297 76q104 0 141 82h105q-20 -72 -83 -121.5t-159 -49.5q-125 0 -196.5 80.5t-71.5 202.5q0 124 74.5 201t190.5 77q122 0 191 -88.5t61 -222.5h-410q8 -75 50.5 -118t106.5 -43zM297 463q-134 0 -155 -144h300q-2 61 -42.5 102.5t-102.5 41.5zM339 725l134 -116h-102
l-79 51l-80 -51h-102l137 116h92z" />
    <glyph glyph-name="edieresis" unicode="&#xeb;" horiz-adv-x="582" 
d="M297 76q104 0 141 82h105q-20 -72 -83 -121.5t-159 -49.5q-125 0 -196.5 80.5t-71.5 202.5q0 124 74.5 201t190.5 77q122 0 191 -88.5t61 -222.5h-410q8 -75 50.5 -118t106.5 -43zM297 463q-134 0 -155 -144h300q-2 61 -42.5 102.5t-102.5 41.5zM124 620v105h98v-105h-98
zM356 725h99v-105h-99v105z" />
    <glyph glyph-name="igrave" unicode="&#xec;" horiz-adv-x="244" 
d="M70 538h104v-538h-104v538zM81 609l-136 116h128l92 -116h-84z" />
    <glyph glyph-name="iacute" unicode="&#xed;" horiz-adv-x="244" 
d="M70 538h104v-538h-104v538zM298 725l-136 -116h-83l91 116h128z" />
    <glyph glyph-name="icircumflex" unicode="&#xee;" horiz-adv-x="244" 
d="M70 538h104v-538h-104v538zM170 725l134 -116h-102l-79 51l-80 -51h-102l137 116h92z" />
    <glyph glyph-name="idieresis" unicode="&#xef;" horiz-adv-x="244" 
d="M70 538h104v-538h-104v538zM-42 620v105h98v-105h-98zM190 725h99v-105h-99v105z" />
    <glyph glyph-name="eth" unicode="&#xf0;" horiz-adv-x="575" 
d="M322 703l66 41l50 -26l-74 -46q172 -134 172 -358q0 -160 -70 -243.5t-186 -83.5q-113 0 -180.5 75.5t-67.5 204.5t65 205t167 76q103 0 156 -82l1 1q-40 93 -136 157l-73 -44l-49 24l78 48q-31 17 -80 39l75 60q42 -20 86 -48zM437 268q0 95 -42 144t-106 49
q-66 0 -105.5 -51.5t-39.5 -141.5t39.5 -142t105.5 -52q64 0 106 49.5t42 144.5z" />
    <glyph glyph-name="ntilde" unicode="&#xf1;" horiz-adv-x="583" 
d="M174 538v-78q51 88 169 88q180 0 180 -209v-339h-104v311q0 33 -3.5 56.5t-14.5 46.5t-34 35t-59 12q-67 0 -100.5 -44.5t-33.5 -127.5v-289h-104v538h104zM370 685q42 0 49 45h77q-9 -64 -43.5 -92t-78.5 -28q-33 0 -73.5 23.5t-59.5 23.5q-40 0 -46 -44h-78
q9 62 43 90.5t79 28.5q33 0 72 -23.5t59 -23.5z" />
    <glyph glyph-name="ograve" unicode="&#xf2;" horiz-adv-x="591" 
d="M144 267q0 -93 44 -142.5t107 -49.5q64 0 108 49.5t44 142.5q0 94 -43.5 143.5t-108.5 49.5q-64 0 -107.5 -48.5t-43.5 -144.5zM295 548q67 0 125 -28.5t97.5 -94t39.5 -158.5q0 -136 -78 -208t-184 -72q-67 0 -124.5 28.5t-97 94t-39.5 157.5q0 93 39.5 158.5t97 94
t124.5 28.5zM251 609l-136 116h128l92 -116h-84z" />
    <glyph glyph-name="oacute" unicode="&#xf3;" horiz-adv-x="591" 
d="M144 267q0 -93 44 -142.5t107 -49.5q64 0 108 49.5t44 142.5q0 94 -43.5 143.5t-108.5 49.5q-64 0 -107.5 -48.5t-43.5 -144.5zM295 548q67 0 125 -28.5t97.5 -94t39.5 -158.5q0 -136 -78 -208t-184 -72q-67 0 -124.5 28.5t-97 94t-39.5 157.5q0 93 39.5 158.5t97 94
t124.5 28.5zM470 725l-136 -116h-83l91 116h128z" />
    <glyph glyph-name="ocircumflex" unicode="&#xf4;" horiz-adv-x="591" 
d="M144 267q0 -93 44 -142.5t107 -49.5q64 0 108 49.5t44 142.5q0 94 -43.5 143.5t-108.5 49.5q-64 0 -107.5 -48.5t-43.5 -144.5zM295 548q67 0 125 -28.5t97.5 -94t39.5 -158.5q0 -136 -78 -208t-184 -72q-67 0 -124.5 28.5t-97 94t-39.5 157.5q0 93 39.5 158.5t97 94
t124.5 28.5zM340 725l134 -116h-102l-79 51l-80 -51h-102l137 116h92z" />
    <glyph glyph-name="otilde" unicode="&#xf5;" horiz-adv-x="591" 
d="M144 267q0 -93 44 -142.5t107 -49.5q64 0 108 49.5t44 142.5q0 94 -43.5 143.5t-108.5 49.5q-64 0 -107.5 -48.5t-43.5 -144.5zM295 548q67 0 125 -28.5t97.5 -94t39.5 -158.5q0 -136 -78 -208t-184 -72q-67 0 -124.5 28.5t-97 94t-39.5 157.5q0 93 39.5 158.5t97 94
t124.5 28.5zM356 685q42 0 49 45h77q-9 -64 -43.5 -92t-78.5 -28q-33 0 -73.5 23.5t-59.5 23.5q-40 0 -46 -44h-78q9 62 43 90.5t79 28.5q33 0 72 -23.5t59 -23.5z" />
    <glyph glyph-name="odieresis" unicode="&#xf6;" horiz-adv-x="591" 
d="M144 267q0 -93 44 -142.5t107 -49.5q64 0 108 49.5t44 142.5q0 94 -43.5 143.5t-108.5 49.5q-64 0 -107.5 -48.5t-43.5 -144.5zM295 548q67 0 125 -28.5t97.5 -94t39.5 -158.5q0 -136 -78 -208t-184 -72q-67 0 -124.5 28.5t-97 94t-39.5 157.5q0 93 39.5 158.5t97 94
t124.5 28.5zM128 620v105h98v-105h-98zM360 725h99v-105h-99v105z" />
    <glyph glyph-name="divide" unicode="&#xf7;" 
d="M278 29v122h125v-122h-125zM278 376v122h125v-122h-125zM602 213h-525v96h525v-96z" />
    <glyph glyph-name="oslash" unicode="&#xf8;" horiz-adv-x="585" 
d="M34 267q0 137 75.5 209t182.5 72q95 0 161 -53l42 49l43 -38l-44 -51q57 -73 57 -188q0 -137 -75.5 -208.5t-183.5 -71.5q-93 0 -160 52l-51 -59l-42 39l52 60q-57 73 -57 188zM144 267q0 -64 18 -106l228 261q-38 38 -98 38q-66 0 -107 -48t-41 -145zM292 75
q66 0 107.5 49t41.5 143q0 64 -19 106l-227 -261q40 -37 97 -37z" />
    <glyph glyph-name="ugrave" unicode="&#xf9;" horiz-adv-x="576" 
d="M402 0v76q-50 -89 -164 -89q-176 0 -176 209v342h104v-314q0 -33 3.5 -56.5t14.5 -46t33 -34.5t56 -12q65 0 97.5 44.5t32.5 126.5v292h104v-538h-105zM260 609l-136 116h128l92 -116h-84z" />
    <glyph glyph-name="uacute" unicode="&#xfa;" horiz-adv-x="576" 
d="M402 0v76q-50 -89 -164 -89q-176 0 -176 209v342h104v-314q0 -33 3.5 -56.5t14.5 -46t33 -34.5t56 -12q65 0 97.5 44.5t32.5 126.5v292h104v-538h-105zM458 725l-136 -116h-83l91 116h128z" />
    <glyph glyph-name="ucircumflex" unicode="&#xfb;" horiz-adv-x="576" 
d="M402 0v76q-50 -89 -164 -89q-176 0 -176 209v342h104v-314q0 -33 3.5 -56.5t14.5 -46t33 -34.5t56 -12q65 0 97.5 44.5t32.5 126.5v292h104v-538h-105zM333 725l134 -116h-102l-79 51l-80 -51h-102l137 116h92z" />
    <glyph glyph-name="udieresis" unicode="&#xfc;" horiz-adv-x="576" 
d="M402 0v76q-50 -89 -164 -89q-176 0 -176 209v342h104v-314q0 -33 3.5 -56.5t14.5 -46t33 -34.5t56 -12q65 0 97.5 44.5t32.5 126.5v292h104v-538h-105zM123 620v105h98v-105h-98zM355 725h99v-105h-99v105z" />
    <glyph glyph-name="yacute" unicode="&#xfd;" horiz-adv-x="480" 
d="M93 -175h-50v83h41q46 0 67 14t39 67l4 12l-194 537h115l130 -401l127 401h108l-190 -550q-35 -99 -71.5 -131t-125.5 -32zM416 725l-136 -116h-83l91 116h128z" />
    <glyph glyph-name="thorn" unicode="&#xfe;" horiz-adv-x="606" 
d="M174 725v-266q52 89 168 89q97 0 164 -76t67 -204t-67 -204.5t-164 -76.5q-116 0 -168 89v-251h-104v900h104zM170 268q0 -95 42 -144.5t106 -49.5q66 0 106 52t40 142t-40 141.5t-106 51.5q-64 0 -106 -49t-42 -144z" />
    <glyph glyph-name="ydieresis" unicode="&#xff;" horiz-adv-x="480" 
d="M93 -175h-50v83h41q46 0 67 14t39 67l4 12l-194 537h115l130 -401l127 401h108l-190 -550q-35 -99 -71.5 -131t-125.5 -32zM75 620v105h98v-105h-98zM307 725h99v-105h-99v105z" />
    <glyph glyph-name="Amacron" unicode="&#x100;" horiz-adv-x="668" 
d="M0 0l269 725h126l273 -725h-124l-57 159h-315l-56 -159h-116zM328 601l-122 -346h246zM486 789h-304v80h304v-80z" />
    <glyph glyph-name="amacron" unicode="&#x101;" horiz-adv-x="564" 
d="M406 217v39q-134 -13 -194.5 -36.5t-60.5 -72.5q0 -37 27 -58.5t75 -21.5q68 0 110.5 37t42.5 113zM230 -13q-84 0 -138 43t-54 115q0 32 12 58t36.5 44.5t54.5 32.5t73.5 24t87 16.5t99.5 12.5v11q0 127 -116 127q-111 0 -117 -103h-105q6 85 69 134t157 49
q218 0 217 -228q0 -5 -1 -60.5t-1 -68.5q0 -122 15 -194h-100q-5 28 -9 71q-49 -84 -180 -84zM441 632h-304v81h304v-81z" />
    <glyph glyph-name="Abreve" unicode="&#x102;" horiz-adv-x="668" 
d="M0 0l269 725h126l273 -725h-124l-57 159h-315l-56 -159h-116zM328 601l-122 -346h246zM412 886h83q-13 -118 -162 -118q-145 0 -160 118h83q7 -55 78 -55q69 0 78 55z" />
    <glyph glyph-name="abreve" unicode="&#x103;" horiz-adv-x="564" 
d="M406 217v39q-134 -13 -194.5 -36.5t-60.5 -72.5q0 -37 27 -58.5t75 -21.5q68 0 110.5 37t42.5 113zM230 -13q-84 0 -138 43t-54 115q0 32 12 58t36.5 44.5t54.5 32.5t73.5 24t87 16.5t99.5 12.5v11q0 127 -116 127q-111 0 -117 -103h-105q6 85 69 134t157 49
q218 0 217 -228q0 -5 -1 -60.5t-1 -68.5q0 -122 15 -194h-100q-5 28 -9 71q-49 -84 -180 -84zM372 725h78q-15 -121 -163 -121q-77 0 -116.5 34t-43.5 87h79q7 -58 82 -58q77 0 84 58z" />
    <glyph glyph-name="Aogonek" unicode="&#x104;" horiz-adv-x="668" 
d="M0 0l269 725h126l273 -725q-90 -44 -90 -79q0 -40 46 -40q22 0 44 8v-67q-27 -10 -67 -10q-47 0 -82 22.5t-35 70.5q0 56 60 95l-57 159h-315l-56 -159h-116zM328 601l-122 -346h246z" />
    <glyph glyph-name="aogonek" unicode="&#x105;" horiz-adv-x="564" 
d="M230 -13q-84 0 -138 43t-54 115q0 32 12 58t36.5 44.5t54.5 32.5t73.5 24t87 16.5t99.5 12.5v11q0 127 -116 127q-111 0 -117 -103h-105q6 85 69 134t157 49q218 0 217 -228q0 -5 -1 -60.5t-1 -68.5q0 -122 15 -194q-88 -39 -88 -81q0 -38 50 -38q14 0 42 7v-67
q-34 -9 -64 -9q-51 0 -86.5 21.5t-35.5 69.5q0 60 82 97q-5 28 -9 71q-49 -84 -180 -84zM406 217v39q-134 -13 -194.5 -36.5t-60.5 -72.5q0 -37 27 -58.5t75 -21.5q68 0 110.5 37t42.5 113z" />
    <glyph glyph-name="Cacute" unicode="&#x106;" horiz-adv-x="726" 
d="M583 236h110q-24 -119 -107 -184t-206 -65q-155 0 -243.5 103.5t-88.5 273.5q0 171 91.5 272.5t247.5 101.5q118 0 200 -65.5t103 -183.5h-110q-18 73 -68.5 113.5t-129.5 40.5q-96 0 -156.5 -73.5t-60.5 -205.5q0 -131 61 -206.5t157 -75.5q80 0 131 40.5t69 113.5z
M571 886l-152 -113h-97l108 113h141z" />
    <glyph glyph-name="cacute" unicode="&#x107;" horiz-adv-x="559" 
d="M293 548q90 0 155.5 -55.5t77.5 -136.5h-104q-8 46 -45.5 74.5t-88.5 28.5q-61 0 -102.5 -48.5t-41.5 -141.5q0 -94 41.5 -143.5t102.5 -49.5q51 0 89 28t49 75h105q-16 -84 -85.5 -138t-159.5 -54q-115 0 -184 78.5t-69 202.5q0 121 71.5 200.5t188.5 79.5zM457 725
l-136 -116h-83l91 116h128z" />
    <glyph glyph-name="Ccircumflex" unicode="&#x108;" horiz-adv-x="726" 
d="M583 236h110q-24 -119 -107 -184t-206 -65q-155 0 -243.5 103.5t-88.5 273.5q0 171 91.5 272.5t247.5 101.5q118 0 200 -65.5t103 -183.5h-110q-18 73 -68.5 113.5t-129.5 40.5q-96 0 -156.5 -73.5t-60.5 -205.5q0 -131 61 -206.5t157 -75.5q80 0 131 40.5t69 113.5z
M433 886l133 -113h-114l-67 54l-68 -54h-114l136 113h94z" />
    <glyph glyph-name="ccircumflex" unicode="&#x109;" horiz-adv-x="559" 
d="M293 548q90 0 155.5 -55.5t77.5 -136.5h-104q-8 46 -45.5 74.5t-88.5 28.5q-61 0 -102.5 -48.5t-41.5 -141.5q0 -94 41.5 -143.5t102.5 -49.5q51 0 89 28t49 75h105q-16 -84 -85.5 -138t-159.5 -54q-115 0 -184 78.5t-69 202.5q0 121 71.5 200.5t188.5 79.5zM337 725
l134 -116h-102l-79 51l-80 -51h-102l137 116h92z" />
    <glyph glyph-name="Cdotaccent" unicode="&#x10a;" horiz-adv-x="726" 
d="M583 236h110q-24 -119 -107 -184t-206 -65q-155 0 -243.5 103.5t-88.5 273.5q0 171 91.5 272.5t247.5 101.5q118 0 200 -65.5t103 -183.5h-110q-18 73 -68.5 113.5t-129.5 40.5q-96 0 -156.5 -73.5t-60.5 -205.5q0 -131 61 -206.5t157 -75.5q80 0 131 40.5t69 113.5z
M333 882h106v-103h-106v103z" />
    <glyph glyph-name="cdotaccent" unicode="&#x10b;" horiz-adv-x="559" 
d="M293 548q90 0 155.5 -55.5t77.5 -136.5h-104q-8 46 -45.5 74.5t-88.5 28.5q-61 0 -102.5 -48.5t-41.5 -141.5q0 -94 41.5 -143.5t102.5 -49.5q51 0 89 28t49 75h105q-16 -84 -85.5 -138t-159.5 -54q-115 0 -184 78.5t-69 202.5q0 121 71.5 200.5t188.5 79.5zM236 725h98
v-105h-98v105z" />
    <glyph glyph-name="Ccaron" unicode="&#x10c;" horiz-adv-x="726" 
d="M583 236h110q-24 -119 -107 -184t-206 -65q-155 0 -243.5 103.5t-88.5 273.5q0 171 91.5 272.5t247.5 101.5q118 0 200 -65.5t103 -183.5h-110q-18 73 -68.5 113.5t-129.5 40.5q-96 0 -156.5 -73.5t-60.5 -205.5q0 -131 61 -206.5t157 -75.5q80 0 131 40.5t69 113.5z
M338 773l-133 113h114l67 -54l69 54h113l-136 -113h-94z" />
    <glyph glyph-name="ccaron" unicode="&#x10d;" horiz-adv-x="559" 
d="M293 548q90 0 155.5 -55.5t77.5 -136.5h-104q-8 46 -45.5 74.5t-88.5 28.5q-61 0 -102.5 -48.5t-41.5 -141.5q0 -94 41.5 -143.5t102.5 -49.5q51 0 89 28t49 75h105q-16 -84 -85.5 -138t-159.5 -54q-115 0 -184 78.5t-69 202.5q0 121 71.5 200.5t188.5 79.5zM237 609
l-134 116h103l78 -51l80 51h102l-137 -116h-92z" />
    <glyph glyph-name="Dcaron" unicode="&#x10e;" horiz-adv-x="725" 
d="M560 363q0 69 -16.5 119t-42 78t-65.5 44.5t-77 21.5t-86 5h-79v-537h79q49 0 86 5t77 21.5t65.5 44.5t42 78.5t16.5 119.5zM80 725h198q91 0 160.5 -18t125 -58t85 -112t29.5 -174t-29.5 -174.5t-85 -112.5t-125 -58t-160.5 -18h-198v725zM309 773l-133 113h114l67 -54
l69 54h113l-136 -113h-94z" />
    <glyph glyph-name="dcaron" unicode="&#x10f;" horiz-adv-x="692" 
d="M712 725l-70 -170h-67l30 170h107zM433 459v266h104v-725h-104v76q-52 -89 -168 -89q-97 0 -164.5 76.5t-67.5 204.5t67 204t165 76q116 0 168 -89zM437 268q0 95 -42 144t-106 49q-66 0 -105.5 -51.5t-39.5 -141.5t39.5 -142t105.5 -52q64 0 106 49.5t42 144.5z" />
    <glyph glyph-name="Dcroat" unicode="&#x110;" horiz-adv-x="734" 
d="M89 725h198q91 0 160.5 -18t125 -58t85 -112t29.5 -174t-29.5 -174.5t-85 -112.5t-125 -58t-160.5 -18h-198v319h-73v97h73v309zM570 363q0 69 -16.5 119t-42 78t-65.5 44.5t-77 21.5t-86 5h-80v-215h147v-97h-147v-225h80q49 0 86 5t77 21.5t65.5 44.5t42 78.5
t16.5 119.5z" />
    <glyph glyph-name="dcroat" unicode="&#x111;" horiz-adv-x="607" 
d="M433 459v118h-130v77h130v71h104v-71h71v-77h-71v-577h-104v76q-52 -89 -168 -89q-97 0 -164.5 76.5t-67.5 204.5t67 204t165 76q116 0 168 -89zM437 268q0 95 -42 144t-106 49q-66 0 -105.5 -51.5t-39.5 -141.5t39.5 -142t105.5 -52q64 0 106 49.5t42 144.5z" />
    <glyph glyph-name="Emacron" unicode="&#x112;" horiz-adv-x="614" 
d="M80 0v725h502v-97h-388v-207h366v-96h-366v-228h388v-97h-502zM488 789h-304v80h304v-80z" />
    <glyph glyph-name="emacron" unicode="&#x113;" horiz-adv-x="582" 
d="M297 76q104 0 141 82h105q-20 -72 -83 -121.5t-159 -49.5q-125 0 -196.5 80.5t-71.5 202.5q0 124 74.5 201t190.5 77q122 0 191 -88.5t61 -222.5h-410q8 -75 50.5 -118t106.5 -43zM297 463q-134 0 -155 -144h300q-2 61 -42.5 102.5t-102.5 41.5zM444 632h-304v81h304v-81
z" />
    <glyph glyph-name="Ebreve" unicode="&#x114;" horiz-adv-x="614" 
d="M80 0v725h502v-97h-388v-207h366v-96h-366v-228h388v-97h-502zM414 886h83q-13 -118 -162 -118q-145 0 -160 118h83q7 -55 78 -55q69 0 78 55z" />
    <glyph glyph-name="ebreve" unicode="&#x115;" horiz-adv-x="583" 
d="M297 76q104 0 141 82h105q-20 -72 -83 -121.5t-159 -49.5q-125 0 -196.5 80.5t-71.5 202.5q0 124 74.5 201t190.5 77q122 0 191 -88.5t61 -222.5h-410q8 -75 50.5 -118t106.5 -43zM297 463q-134 0 -155 -144h300q-2 61 -42.5 102.5t-102.5 41.5zM372 725h78
q-15 -121 -163 -121q-77 0 -116.5 34t-43.5 87h79q7 -58 82 -58q77 0 84 58z" />
    <glyph glyph-name="Edotaccent" unicode="&#x116;" horiz-adv-x="614" 
d="M80 0v725h502v-97h-388v-207h366v-96h-366v-228h388v-97h-502zM278 882h106v-103h-106v103z" />
    <glyph glyph-name="edotaccent" unicode="&#x117;" horiz-adv-x="582" 
d="M297 76q104 0 141 82h105q-20 -72 -83 -121.5t-159 -49.5q-125 0 -196.5 80.5t-71.5 202.5q0 124 74.5 201t190.5 77q122 0 191 -88.5t61 -222.5h-410q8 -75 50.5 -118t106.5 -43zM297 463q-134 0 -155 -144h300q-2 61 -42.5 102.5t-102.5 41.5zM240 725h98v-105h-98v105
z" />
    <glyph glyph-name="Eogonek" unicode="&#x118;" horiz-adv-x="614" 
d="M80 0v725h502v-97h-388v-207h366v-96h-366v-228h388v-97q-90 -44 -90 -79q0 -40 46 -40q22 0 44 8v-67q-27 -10 -66 -10q-47 0 -82 22.5t-35 70.5q0 56 69 95h-388z" />
    <glyph glyph-name="eogonek" unicode="&#x119;" horiz-adv-x="582" 
d="M435 -112v-67q-34 -9 -64 -9q-51 0 -86.5 22t-35.5 72q0 36 40 81q-121 6 -188.5 85t-67.5 198q0 124 74.5 201t190.5 77q122 0 191 -88.5t61 -222.5h-410q8 -74 51 -117.5t106 -43.5q104 0 141 82h105q-27 -96 -114 -142q-86 -53 -86 -94t50 -41q14 0 42 7zM297 463
q-134 0 -155 -144h300q-2 61 -42.5 102.5t-102.5 41.5z" />
    <glyph glyph-name="Ecaron" unicode="&#x11a;" horiz-adv-x="614" 
d="M80 0v725h502v-97h-388v-207h366v-96h-366v-228h388v-97h-502zM292 773l-133 113h114l67 -54l69 54h113l-136 -113h-94z" />
    <glyph glyph-name="ecaron" unicode="&#x11b;" horiz-adv-x="582" 
d="M297 76q104 0 141 82h105q-20 -72 -83 -121.5t-159 -49.5q-125 0 -196.5 80.5t-71.5 202.5q0 124 74.5 201t190.5 77q122 0 191 -88.5t61 -222.5h-410q8 -75 50.5 -118t106.5 -43zM297 463q-134 0 -155 -144h300q-2 61 -42.5 102.5t-102.5 41.5zM241 609l-134 116h103
l78 -51l80 51h102l-137 -116h-92z" />
    <glyph glyph-name="Gcircumflex" unicode="&#x11c;" horiz-adv-x="767" 
d="M390 738q119 0 199.5 -61.5t103.5 -171.5h-110q-18 65 -68 101.5t-129 36.5q-98 0 -159.5 -73t-61.5 -206q0 -132 60 -207t160 -75q37 0 71 8.5t65.5 28t50 56t18.5 86.5v16h-189v97h295v-374h-89l-5 89q-67 -102 -225 -102q-154 0 -241.5 103.5t-87.5 273.5
q0 169 93 271.5t249 102.5zM438 886l133 -113h-114l-67 54l-68 -54h-114l136 113h94z" />
    <glyph glyph-name="gcircumflex" unicode="&#x11d;" horiz-adv-x="601" 
d="M428 459v79h104v-475q0 -131 -58 -189q-62 -65 -188 -65q-94 0 -153.5 41.5t-71.5 123.5h107q9 -39 36 -58.5t84 -19.5q74 0 108 39q32 35 32 106v57q-52 -89 -166 -89q-98 0 -163.5 72.5t-65.5 197.5q0 124 65.5 196.5t163.5 72.5q114 0 166 -89zM432 279q0 91 -41 137
t-105 46q-66 0 -104 -48.5t-38 -134.5q0 -87 38 -136t104 -49q64 0 105 47t41 138zM344 725l134 -116h-102l-79 51l-80 -51h-102l137 116h92z" />
    <glyph glyph-name="Gbreve" unicode="&#x11e;" horiz-adv-x="767" 
d="M390 738q119 0 199.5 -61.5t103.5 -171.5h-110q-18 65 -68 101.5t-129 36.5q-98 0 -159.5 -73t-61.5 -206q0 -132 60 -207t160 -75q37 0 71 8.5t65.5 28t50 56t18.5 86.5v16h-189v97h295v-374h-89l-5 89q-67 -102 -225 -102q-154 0 -241.5 103.5t-87.5 273.5
q0 169 93 271.5t249 102.5zM468 886h83q-13 -118 -162 -118q-145 0 -160 118h83q7 -55 78 -55q69 0 78 55z" />
    <glyph glyph-name="gbreve" unicode="&#x11f;" horiz-adv-x="601" 
d="M428 459v79h104v-475q0 -131 -58 -189q-62 -65 -188 -65q-94 0 -153.5 41.5t-71.5 123.5h107q9 -39 36 -58.5t84 -19.5q74 0 108 39q32 35 32 106v57q-52 -89 -166 -89q-98 0 -163.5 72.5t-65.5 197.5q0 124 65.5 196.5t163.5 72.5q114 0 166 -89zM432 279q0 91 -41 137
t-105 46q-66 0 -104 -48.5t-38 -134.5q0 -87 38 -136t104 -49q64 0 105 47t41 138zM371 725h78q-15 -121 -163 -121q-77 0 -116.5 34t-43.5 87h79q7 -58 82 -58q77 0 84 58z" />
    <glyph glyph-name="Gdotaccent" unicode="&#x120;" horiz-adv-x="767" 
d="M390 738q119 0 199.5 -61.5t103.5 -171.5h-110q-18 65 -68 101.5t-129 36.5q-98 0 -159.5 -73t-61.5 -206q0 -132 60 -207t160 -75q37 0 71 8.5t65.5 28t50 56t18.5 86.5v16h-189v97h295v-374h-89l-5 89q-67 -102 -225 -102q-154 0 -241.5 103.5t-87.5 273.5
q0 169 93 271.5t249 102.5zM337 882h106v-103h-106v103z" />
    <glyph glyph-name="gdotaccent" unicode="&#x121;" horiz-adv-x="601" 
d="M428 459v79h104v-475q0 -131 -58 -189q-62 -65 -188 -65q-94 0 -153.5 41.5t-71.5 123.5h107q9 -39 36 -58.5t84 -19.5q74 0 108 39q32 35 32 106v57q-52 -89 -166 -89q-98 0 -163.5 72.5t-65.5 197.5q0 124 65.5 196.5t163.5 72.5q114 0 166 -89zM432 279q0 91 -41 137
t-105 46q-66 0 -104 -48.5t-38 -134.5q0 -87 38 -136t104 -49q64 0 105 47t41 138zM240 725h98v-105h-98v105z" />
    <glyph glyph-name="uni0122" unicode="&#x122;" horiz-adv-x="767" 
d="M390 738q119 0 199.5 -61.5t103.5 -171.5h-110q-18 65 -68 101.5t-129 36.5q-98 0 -159.5 -73t-61.5 -206q0 -132 60 -207t160 -75q37 0 71 8.5t65.5 28t50 56t18.5 86.5v16h-189v97h295v-374h-89l-5 89q-67 -102 -225 -102q-154 0 -241.5 103.5t-87.5 273.5
q0 169 93 271.5t249 102.5zM325 -128v92h98v-98l-44 -90h-57l39 96h-36z" />
    <glyph glyph-name="uni0123" unicode="&#x123;" horiz-adv-x="601" 
d="M332 695v-93h-97v99l44 89h57l-39 -95h35zM428 459v79h104v-475q0 -131 -58 -189q-62 -65 -188 -65q-94 0 -153.5 41.5t-71.5 123.5h107q9 -39 36 -58.5t84 -19.5q74 0 108 39q32 35 32 106v57q-52 -89 -166 -89q-98 0 -163.5 72.5t-65.5 197.5q0 124 65.5 196.5
t163.5 72.5q114 0 166 -89zM432 279q0 91 -41 137t-105 46q-66 0 -104 -48.5t-38 -134.5q0 -87 38 -136t104 -49q64 0 105 47t41 138z" />
    <glyph glyph-name="Hcircumflex" unicode="&#x124;" horiz-adv-x="752" 
d="M558 725h114v-725h-114v325h-364v-325h-114v725h114v-304h364v304zM424 886l133 -113h-114l-67 54l-68 -54h-114l136 113h94z" />
    <glyph glyph-name="hcircumflex" unicode="&#x125;" horiz-adv-x="583" 
d="M174 725v-265q51 88 169 88q180 0 180 -209v-339h-104v311q0 33 -3.5 56.5t-14.5 46.5t-34 35t-59 12q-67 0 -100.5 -44.5t-33.5 -127.5v-289h-104v725h104zM171 886l133 -113h-114l-67 54l-68 -54h-114l136 113h94z" />
    <glyph glyph-name="Hbar" unicode="&#x126;" horiz-adv-x="753" 
d="M558 725h114v-122h66v-87h-66v-516h-114v325h-364v-325h-114v516h-65v87h65v122h114v-122h364v122zM194 421h364v95h-364v-95z" />
    <glyph glyph-name="hbar" unicode="&#x127;" horiz-adv-x="589" 
d="M180 725v-71h128v-77h-128v-117q51 88 169 88q180 0 180 -209v-339h-104v311q0 33 -3.5 56.5t-14.5 46.5t-34 35t-59 12q-67 0 -100.5 -44.5t-33.5 -127.5v-289h-104v577h-81v77h81v71h104z" />
    <glyph glyph-name="Itilde" unicode="&#x128;" horiz-adv-x="274" 
d="M194 725v-725h-114v725h114zM201 843q42 0 49 42h77q-20 -113 -122 -113q-33 0 -74 22t-58 22q-42 0 -46 -42h-78q10 60 43.5 86.5t77.5 26.5q34 0 72.5 -22t58.5 -22z" />
    <glyph glyph-name="itilde" unicode="&#x129;" horiz-adv-x="244" 
d="M70 538h104v-538h-104v538zM186 685q42 0 49 45h77q-9 -64 -43.5 -92t-78.5 -28q-33 0 -73.5 23.5t-59.5 23.5q-40 0 -46 -44h-78q9 62 43 90.5t79 28.5q32 0 71.5 -23.5t59.5 -23.5z" />
    <glyph glyph-name="Imacron" unicode="&#x12a;" horiz-adv-x="274" 
d="M194 725v-725h-114v725h114zM290 789h-304v80h304v-80z" />
    <glyph glyph-name="imacron" unicode="&#x12b;" horiz-adv-x="244" 
d="M70 538h104v-538h-104v538zM274 632h-304v81h304v-81z" />
    <glyph glyph-name="Ibreve" unicode="&#x12c;" horiz-adv-x="274" 
d="M194 725v-725h-114v725h114zM216 886h83q-13 -118 -162 -118q-145 0 -160 118h83q7 -55 78 -55q69 0 78 55z" />
    <glyph glyph-name="ibreve" unicode="&#x12d;" horiz-adv-x="244" 
d="M70 538h104v-538h-104v538zM206 725h78q-15 -121 -163 -121q-77 0 -116.5 34t-43.5 87h79q7 -58 82 -58q77 0 84 58z" />
    <glyph glyph-name="Iogonek" unicode="&#x12e;" horiz-adv-x="274" 
d="M194 725v-725h-114v725h114zM81 0h114q-89 -44 -89 -79q0 -40 46 -40q21 0 43 8v-67q-27 -10 -66 -10q-47 0 -82 22.5t-35 70.5q0 56 69 95z" />
    <glyph glyph-name="iogonek" unicode="&#x12f;" horiz-adv-x="244" 
d="M70 0v538h104v-538q-92 -41 -92 -81q0 -38 50 -38q14 0 42 7v-67q-34 -9 -64 -9q-51 0 -86.5 21.5t-35.5 69.5q0 60 82 97zM70 725h104v-115h-104v115z" />
    <glyph glyph-name="Idotaccent" unicode="&#x130;" horiz-adv-x="274" 
d="M194 725v-725h-114v725h114zM84 882h106v-103h-106v103z" />
    <glyph glyph-name="dotlessi" unicode="&#x131;" horiz-adv-x="244" 
d="M70 538h104v-538h-104v538z" />
    <glyph glyph-name="Jcircumflex" unicode="&#x134;" horiz-adv-x="566" 
d="M249 -13q-114 0 -176 64.5t-62 182.5h110q0 -74 35 -114t93 -40q55 0 89 38t34 120v487h114v-488q0 -118 -62 -184t-175 -66zM479 886l133 -113h-114l-67 54l-68 -54h-114l136 113h94z" />
    <glyph glyph-name="jcircumflex" unicode="&#x135;" horiz-adv-x="244" 
d="M70 -21v559h104v-556q0 -93 -28.5 -125t-112.5 -32h-43v84h24q35 0 45.5 13.5t10.5 56.5zM170 725l134 -116h-102l-79 51l-80 -51h-102l137 116h92z" />
    <glyph glyph-name="uni0136" unicode="&#x136;" horiz-adv-x="670" 
d="M194 725v-355l318 355h138l-270 -296l298 -429h-135l-239 346l-110 -121v-225h-114v725h114zM307 -128v92h98v-98l-44 -90h-57l39 96h-36z" />
    <glyph glyph-name="uni0137" unicode="&#x137;" horiz-adv-x="519" 
d="M70 725h104v-417l214 230h127l-209 -222l224 -316h-124l-171 241l-61 -65v-176h-104v725zM236 -128v92h98v-98l-44 -90h-57l39 96h-36z" />
    <glyph glyph-name="Lacute" unicode="&#x139;" horiz-adv-x="568" 
d="M194 725v-628h374v-97h-488v725h114zM333 886l-152 -113h-97l108 113h141z" />
    <glyph glyph-name="lacute" unicode="&#x13a;" horiz-adv-x="243" 
d="M174 725v-725h-104v725h104zM322 886l-152 -113h-97l108 113h141z" />
    <glyph glyph-name="uni013B" unicode="&#x13b;" horiz-adv-x="568" 
d="M194 725v-628h374v-97h-488v725h114zM276 -128v92h98v-98l-44 -90h-57l39 96h-36z" />
    <glyph glyph-name="uni013C" unicode="&#x13c;" horiz-adv-x="244" 
d="M174 725v-725h-104v725h104zM74 -128v92h98v-98l-44 -90h-57l39 96h-36z" />
    <glyph glyph-name="Lcaron" unicode="&#x13d;" horiz-adv-x="568" 
d="M194 725v-628h374v-97h-488v725h114zM425 725l-70 -170h-67l30 170h107z" />
    <glyph glyph-name="lcaron" unicode="&#x13e;" horiz-adv-x="332" 
d="M352 725l-70 -170h-67l30 170h107zM174 725v-725h-104v725h104z" />
    <glyph glyph-name="Ldot" unicode="&#x13f;" horiz-adv-x="568" 
d="M367 474h106v-103h-106v103zM194 725v-628h374v-97h-488v725h114z" />
    <glyph glyph-name="ldot" unicode="&#x140;" horiz-adv-x="341" 
d="M174 725v-725h-104v725h104zM244 465h98v-105h-98v105z" />
    <glyph glyph-name="Lslash" unicode="&#x141;" horiz-adv-x="579" 
d="M204 725v-295l182 122v-101l-182 -122v-232h375v-97h-489v253l-90 -60v101l90 60v371h114z" />
    <glyph glyph-name="lslash" unicode="&#x142;" horiz-adv-x="290" 
d="M197 725v-263l73 48v-87l-73 -48v-375h-105v308l-72 -46v86l72 47v330h105z" />
    <glyph glyph-name="Nacute" unicode="&#x143;" horiz-adv-x="751" 
d="M671 0h-159l-320 600v-600h-112v725h159l320 -599v599h112v-725zM575 886l-152 -113h-97l108 113h141z" />
    <glyph glyph-name="nacute" unicode="&#x144;" horiz-adv-x="583" 
d="M174 538v-78q51 88 169 88q180 0 180 -209v-339h-104v311q0 33 -3.5 56.5t-14.5 46.5t-34 35t-59 12q-67 0 -100.5 -44.5t-33.5 -127.5v-289h-104v538h104zM473 725l-136 -116h-83l91 116h128z" />
    <glyph glyph-name="uni0145" unicode="&#x145;" horiz-adv-x="751" 
d="M671 0h-159l-320 600v-600h-112v725h159l320 -599v599h112v-725zM328 -128v92h98v-98l-44 -90h-57l39 96h-36z" />
    <glyph glyph-name="uni0146" unicode="&#x146;" horiz-adv-x="583" 
d="M174 538v-78q51 88 169 88q180 0 180 -209v-339h-104v311q0 33 -3.5 56.5t-14.5 46.5t-34 35t-59 12q-67 0 -100.5 -44.5t-33.5 -127.5v-289h-104v538h104zM244 -128v92h98v-98l-44 -90h-57l39 96h-36z" />
    <glyph glyph-name="Ncaron" unicode="&#x147;" horiz-adv-x="751" 
d="M671 0h-159l-320 600v-600h-112v725h159l320 -599v599h112v-725zM346 773l-133 113h114l67 -54l69 54h113l-136 -113h-94z" />
    <glyph glyph-name="ncaron" unicode="&#x148;" horiz-adv-x="583" 
d="M174 538v-78q51 88 169 88q180 0 180 -209v-339h-104v311q0 33 -3.5 56.5t-14.5 46.5t-34 35t-59 12q-67 0 -100.5 -44.5t-33.5 -127.5v-289h-104v538h104zM258 609l-134 116h103l78 -51l80 51h102l-137 -116h-92z" />
    <glyph glyph-name="Eng" unicode="&#x14a;" horiz-adv-x="751" 
d="M557 2l-365 597v-599h-112v725h161l318 -523v523h112v-737q0 -102 -36.5 -135.5t-134.5 -33.5h-48v95h24q52 0 66.5 14t14.5 64v10z" />
    <glyph glyph-name="eng" unicode="&#x14b;" horiz-adv-x="583" 
d="M418 -18v329q0 33 -3.5 56.5t-14.5 46.5t-34 34.5t-58 11.5q-134 0 -134 -171v-289h-104v538h104v-78q51 88 169 88q180 0 180 -209v-362q0 -91 -30 -121.5t-115 -30.5h-47v87h26q38 0 49.5 13.5t11.5 56.5z" />
    <glyph glyph-name="Omacron" unicode="&#x14c;" horiz-adv-x="781" 
d="M165 363q0 -132 63.5 -206.5t162.5 -74.5q97 0 161 75t64 206q0 132 -63.5 206t-161.5 74q-99 0 -162.5 -74t-63.5 -206zM733 363q0 -168 -93 -272t-249 -104q-157 0 -250 104t-93 272q0 167 93 271t250 104q156 0 249 -104t93 -271zM543 789h-304v80h304v-80z" />
    <glyph glyph-name="omacron" unicode="&#x14d;" horiz-adv-x="591" 
d="M144 267q0 -93 44 -142.5t107 -49.5q64 0 108 49.5t44 142.5q0 94 -43.5 143.5t-108.5 49.5q-64 0 -107.5 -48.5t-43.5 -144.5zM295 548q67 0 125 -28.5t97.5 -94t39.5 -158.5q0 -136 -78 -208t-184 -72q-67 0 -124.5 28.5t-97 94t-39.5 157.5q0 93 39.5 158.5t97 94
t124.5 28.5zM445 632h-304v81h304v-81z" />
    <glyph glyph-name="Obreve" unicode="&#x14e;" horiz-adv-x="781" 
d="M165 363q0 -132 63.5 -206.5t162.5 -74.5q97 0 161 75t64 206q0 132 -63.5 206t-161.5 74q-99 0 -162.5 -74t-63.5 -206zM733 363q0 -168 -93 -272t-249 -104q-157 0 -250 104t-93 272q0 167 93 271t250 104q156 0 249 -104t93 -271zM469 886h83q-13 -118 -162 -118
q-145 0 -160 118h83q7 -55 78 -55q69 0 78 55z" />
    <glyph glyph-name="obreve" unicode="&#x14f;" horiz-adv-x="591" 
d="M144 267q0 -93 44 -142.5t107 -49.5q64 0 108 49.5t44 142.5q0 94 -43.5 143.5t-108.5 49.5q-64 0 -107.5 -48.5t-43.5 -144.5zM295 548q67 0 125 -28.5t97.5 -94t39.5 -158.5q0 -136 -78 -208t-184 -72q-67 0 -124.5 28.5t-97 94t-39.5 157.5q0 93 39.5 158.5t97 94
t124.5 28.5zM376 725h78q-15 -121 -163 -121q-77 0 -116.5 34t-43.5 87h79q7 -58 82 -58q77 0 84 58z" />
    <glyph glyph-name="Ohungarumlaut" unicode="&#x150;" horiz-adv-x="781" 
d="M165 363q0 -132 63.5 -206.5t162.5 -74.5q97 0 161 75t64 206q0 132 -63.5 206t-161.5 74q-99 0 -162.5 -74t-63.5 -206zM733 363q0 -168 -93 -272t-249 -104q-157 0 -250 104t-93 272q0 167 93 271t250 104q156 0 249 -104t93 -271zM504 886l-152 -113h-97l108 113h141z
M677 886l-152 -113h-96l107 113h141z" />
    <glyph glyph-name="ohungarumlaut" unicode="&#x151;" horiz-adv-x="591" 
d="M144 267q0 -93 44 -142.5t107 -49.5q64 0 108 49.5t44 142.5q0 94 -43.5 143.5t-108.5 49.5q-64 0 -107.5 -48.5t-43.5 -144.5zM295 548q67 0 125 -28.5t97.5 -94t39.5 -158.5q0 -136 -78 -208t-184 -72q-67 0 -124.5 28.5t-97 94t-39.5 157.5q0 93 39.5 158.5t97 94
t124.5 28.5zM385 725l-135 -116h-84l91 116h128zM554 725l-136 -116h-83l91 116h128z" />
    <glyph glyph-name="OE" unicode="&#x152;" horiz-adv-x="1134" 
d="M617 364q0 132 -63.5 205.5t-162.5 73.5t-162.5 -73.5t-63.5 -205.5q0 -133 63.5 -207.5t162.5 -74.5t162.5 74.5t63.5 207.5zM621 0v88q-81 -101 -231 -101q-156 0 -249 104.5t-93 272.5q0 165 95 269.5t248 104.5q150 0 230 -99v86h481v-97h-388v-207h365v-96h-365
v-228h388v-97h-481z" />
    <glyph glyph-name="oe" unicode="&#x153;" horiz-adv-x="998" 
d="M713 463q-134 0 -155 -144h300q-2 61 -42.5 102.5t-102.5 41.5zM144 267q0 -93 44 -142.5t107 -49.5q64 0 108 49.5t44 142.5q0 94 -43.5 143.5t-108.5 49.5q-64 0 -107.5 -48.5t-43.5 -144.5zM854 158h105q-20 -72 -83 -121.5t-159 -49.5q-143 0 -215 103
q-71 -103 -207 -103q-67 0 -124.5 28.5t-97 94t-39.5 157.5q0 93 39.5 158.5t97 94t124.5 28.5q137 0 207 -103q35 49 90.5 76t121.5 27q122 0 191 -88.5t61 -222.5h-410q8 -74 51 -117.5t106 -43.5q104 0 141 82z" />
    <glyph glyph-name="Racute" unicode="&#x154;" horiz-adv-x="679" 
d="M521 0l-155 306q-15 -1 -47 -1h-125v-305h-114v725h230q158 0 235 -45t77 -164q0 -148 -140 -191l167 -325h-128zM323 631h-129v-233h131q91 0 135.5 23.5t44.5 92.5q0 71 -46 94t-136 23zM517 886l-152 -113h-97l108 113h141z" />
    <glyph glyph-name="racute" unicode="&#x155;" horiz-adv-x="362" 
d="M350 539v-108q-28 3 -54 3q-62 0 -92 -35t-30 -117v-282h-104v538h102v-95q44 95 149 97q20 0 29 -1zM387 725l-136 -116h-83l91 116h128z" />
    <glyph glyph-name="uni0156" unicode="&#x156;" horiz-adv-x="679" 
d="M521 0l-155 306q-15 -1 -47 -1h-125v-305h-114v725h230q158 0 235 -45t77 -164q0 -148 -140 -191l167 -325h-128zM323 631h-129v-233h131q91 0 135.5 23.5t44.5 92.5q0 71 -46 94t-136 23zM294 -128v92h98v-98l-44 -90h-57l39 96h-36z" />
    <glyph glyph-name="uni0157" unicode="&#x157;" horiz-adv-x="362" 
d="M72 -128v92h98v-98l-44 -90h-57l39 96h-36zM350 539v-108q-28 3 -54 3q-62 0 -92 -35t-30 -117v-282h-104v538h102v-95q44 95 149 97q20 0 29 -1z" />
    <glyph glyph-name="Rcaron" unicode="&#x158;" horiz-adv-x="679" 
d="M521 0l-155 306q-15 -1 -47 -1h-125v-305h-114v725h230q158 0 235 -45t77 -164q0 -148 -140 -191l167 -325h-128zM323 631h-129v-233h131q91 0 135.5 23.5t44.5 92.5q0 71 -46 94t-136 23zM293 773l-133 113h114l67 -54l69 54h113l-136 -113h-94z" />
    <glyph glyph-name="rcaron" unicode="&#x159;" horiz-adv-x="362" 
d="M350 539v-108q-28 3 -54 3q-62 0 -92 -35t-30 -117v-282h-104v538h102v-95q44 95 149 97q20 0 29 -1zM162 609l-134 116h103l78 -51l80 51h102l-137 -116h-92z" />
    <glyph glyph-name="Sacute" unicode="&#x15a;" horiz-adv-x="644" 
d="M344 318l-89 18q-87 18 -144 67t-57 134q0 65 41.5 112t100 68t123.5 21q107 0 181 -51t95 -156h-110q-17 59 -64.5 85.5t-106.5 26.5q-51 0 -97.5 -25t-46.5 -76q0 -81 110 -104l86 -18q51 -11 88 -24t75.5 -36.5t59 -62.5t20.5 -91q0 -102 -83 -160.5t-196 -58.5
q-126 0 -206 65.5t-92 179.5h112q32 -150 190 -150q72 0 116 31t44 84q0 90 -150 121zM521 886l-152 -113h-97l108 113h141z" />
    <glyph glyph-name="sacute" unicode="&#x15b;" horiz-adv-x="525" 
d="M479 388h-103q-21 77 -122 77q-42 0 -74 -17t-32 -48q0 -29 18 -43.5t57 -23.5l77 -15q91 -19 141 -53.5t50 -106.5q0 -79 -64.5 -125t-161.5 -46q-99 0 -160.5 50.5t-71.5 129.5h106q24 -97 129 -97q52 0 85.5 20.5t33.5 55.5q0 61 -103 81l-81 16q-72 14 -114.5 48.5
t-42.5 104.5q0 69 63.5 111t154.5 42q83 0 141.5 -42t73.5 -119zM437 725l-136 -116h-83l91 116h128z" />
    <glyph glyph-name="Scircumflex" unicode="&#x15c;" horiz-adv-x="644" 
d="M344 318l-89 18q-87 18 -144 67t-57 134q0 65 41.5 112t100 68t123.5 21q107 0 181 -51t95 -156h-110q-17 59 -64.5 85.5t-106.5 26.5q-51 0 -97.5 -25t-46.5 -76q0 -81 110 -104l86 -18q51 -11 88 -24t75.5 -36.5t59 -62.5t20.5 -91q0 -102 -83 -160.5t-196 -58.5
q-126 0 -206 65.5t-92 179.5h112q32 -150 190 -150q72 0 116 31t44 84q0 90 -150 121zM378 886l133 -113h-114l-67 54l-68 -54h-114l136 113h94z" />
    <glyph glyph-name="scircumflex" unicode="&#x15d;" horiz-adv-x="525" 
d="M479 388h-103q-21 77 -122 77q-42 0 -74 -17t-32 -48q0 -29 18 -43.5t57 -23.5l77 -15q91 -19 141 -53.5t50 -106.5q0 -79 -64.5 -125t-161.5 -46q-99 0 -160.5 50.5t-71.5 129.5h106q24 -97 129 -97q52 0 85.5 20.5t33.5 55.5q0 61 -103 81l-81 16q-72 14 -114.5 48.5
t-42.5 104.5q0 69 63.5 111t154.5 42q83 0 141.5 -42t73.5 -119zM316 725l134 -116h-102l-79 51l-80 -51h-102l137 116h92z" />
    <glyph glyph-name="Scedilla" unicode="&#x15e;" horiz-adv-x="644" 
d="M344 318l-89 18q-87 18 -144 67t-57 134q0 65 41.5 112t100 68t123.5 21q107 0 181 -51t95 -156h-110q-17 59 -64.5 85.5t-106.5 26.5q-51 0 -97.5 -25t-46.5 -76q0 -81 110 -104l86 -18q51 -11 88 -24t75.5 -36.5t59 -62.5t20.5 -91q0 -102 -83 -160.5t-196 -58.5
q-126 0 -206 65.5t-92 179.5h112q32 -150 190 -150q72 0 116 31t44 84q0 90 -150 121zM231 -176l16 41q30 -14 58 -14q60 0 60 31q0 30 -43 30q-24 0 -38 -9l-30 17l51 83h53l-32 -51q17 3 32 3q35 0 56 -18.5t21 -49.5q0 -37 -33.5 -59.5t-76.5 -22.5q-55 0 -94 19z" />
    <glyph glyph-name="scedilla" unicode="&#x15f;" horiz-adv-x="525" 
d="M479 388h-103q-21 77 -122 77q-42 0 -74 -17t-32 -48q0 -29 18 -43.5t57 -23.5l77 -15q91 -19 141 -53.5t50 -106.5q0 -79 -64.5 -125t-161.5 -46q-99 0 -160.5 50.5t-71.5 129.5h106q24 -97 129 -97q52 0 85.5 20.5t33.5 55.5q0 61 -103 81l-81 16q-72 14 -114.5 48.5
t-42.5 104.5q0 69 63.5 111t154.5 42q83 0 141.5 -42t73.5 -119zM157 -176l16 41q30 -14 58 -14q60 0 60 31q0 30 -43 30q-24 0 -38 -9l-30 17l51 83h53l-32 -51q16 3 32 3q35 0 56 -18.5t21 -49.5q0 -37 -33.5 -59.5t-76.5 -22.5q-55 0 -94 19z" />
    <glyph glyph-name="Scaron" unicode="&#x160;" horiz-adv-x="644" 
d="M344 318l-89 18q-87 18 -144 67t-57 134q0 65 41.5 112t100 68t123.5 21q107 0 181 -51t95 -156h-110q-17 59 -64.5 85.5t-106.5 26.5q-51 0 -97.5 -25t-46.5 -76q0 -81 110 -104l86 -18q51 -11 88 -24t75.5 -36.5t59 -62.5t20.5 -91q0 -102 -83 -160.5t-196 -58.5
q-126 0 -206 65.5t-92 179.5h112q32 -150 190 -150q72 0 116 31t44 84q0 90 -150 121zM281 773l-133 113h114l67 -54l69 54h113l-136 -113h-94z" />
    <glyph glyph-name="scaron" unicode="&#x161;" horiz-adv-x="525" 
d="M479 388h-103q-21 77 -122 77q-42 0 -74 -17t-32 -48q0 -29 18 -43.5t57 -23.5l77 -15q91 -19 141 -53.5t50 -106.5q0 -79 -64.5 -125t-161.5 -46q-99 0 -160.5 50.5t-71.5 129.5h106q24 -97 129 -97q52 0 85.5 20.5t33.5 55.5q0 61 -103 81l-81 16q-72 14 -114.5 48.5
t-42.5 104.5q0 69 63.5 111t154.5 42q83 0 141.5 -42t73.5 -119zM218 609l-134 116h103l78 -51l80 51h102l-137 -116h-92z" />
    <glyph glyph-name="uni0162" unicode="&#x162;" horiz-adv-x="583" 
d="M243 -128v92h98v-98l-44 -90h-57l39 96h-36zM235 0v628h-233v97h579v-97h-232v-628h-114z" />
    <glyph glyph-name="uni0163" unicode="&#x163;" horiz-adv-x="332" 
d="M91 538v138h104v-138h106v-79h-106v-307q0 -42 11.5 -55.5t49.5 -13.5h44v-83h-76q-81 0 -107 27t-26 111v321h-82v79h82zM108 -128v92h98v-98l-44 -90h-57l39 96h-36z" />
    <glyph glyph-name="Tcaron" unicode="&#x164;" horiz-adv-x="583" 
d="M235 0v628h-233v97h579v-97h-232v-628h-114zM242 773l-133 113h114l67 -54l69 54h113l-136 -113h-94z" />
    <glyph glyph-name="tcaron" unicode="&#x165;" horiz-adv-x="378" 
d="M398 725l-70 -150h-67l30 150h107zM91 538v138h104v-138h106v-79h-106v-307q0 -42 11.5 -55.5t49.5 -13.5h44v-83h-76q-81 0 -107 27t-26 111v321h-82v79h82z" />
    <glyph glyph-name="Tbar" unicode="&#x166;" horiz-adv-x="583" 
d="M235 0v319h-158v97h158v212h-233v97h579v-97h-232v-212h155v-97h-155v-319h-114z" />
    <glyph glyph-name="tbar" unicode="&#x167;" horiz-adv-x="343" 
d="M100 538v138h104v-138h105v-79h-105v-82h105v-82h-105v-143q0 -42 11 -55.5t49 -13.5h45v-83h-77q-81 0 -106.5 27t-25.5 111v157h-83v82h83v82h-83v79h83z" />
    <glyph glyph-name="Utilde" unicode="&#x168;" horiz-adv-x="724" 
d="M69 725h114v-435q0 -107 40 -157t139 -50q98 0 139 53t41 162v427h114v-421q0 -166 -68.5 -241.5t-225.5 -75.5q-156 0 -224.5 70.5t-68.5 240.5v427zM436 843q42 0 49 42h77q-20 -113 -122 -113q-33 0 -73.5 22t-58.5 22q-42 0 -46 -42h-78q10 60 43.5 86.5t77.5 26.5
q34 0 72.5 -22t58.5 -22z" />
    <glyph glyph-name="utilde" unicode="&#x169;" horiz-adv-x="576" 
d="M402 0v76q-50 -89 -164 -89q-176 0 -176 209v342h104v-314q0 -33 3.5 -56.5t14.5 -46t33 -34.5t56 -12q65 0 97.5 44.5t32.5 126.5v292h104v-538h-105zM356 685q42 0 49 45h77q-9 -64 -43.5 -92t-78.5 -28q-33 0 -73.5 23.5t-59.5 23.5q-40 0 -46 -44h-78q9 62 43 90.5
t79 28.5q33 0 72 -23.5t59 -23.5z" />
    <glyph glyph-name="Umacron" unicode="&#x16a;" horiz-adv-x="724" 
d="M69 725h114v-435q0 -107 40 -157t139 -50q98 0 139 53t41 162v427h114v-421q0 -166 -68.5 -241.5t-225.5 -75.5q-156 0 -224.5 70.5t-68.5 240.5v427zM514 789h-304v80h304v-80z" />
    <glyph glyph-name="umacron" unicode="&#x16b;" horiz-adv-x="576" 
d="M402 0v76q-50 -89 -164 -89q-176 0 -176 209v342h104v-314q0 -33 3.5 -56.5t14.5 -46t33 -34.5t56 -12q65 0 97.5 44.5t32.5 126.5v292h104v-538h-105zM438 632h-304v81h304v-81z" />
    <glyph glyph-name="Ubreve" unicode="&#x16c;" horiz-adv-x="724" 
d="M69 725h114v-435q0 -107 40 -157t139 -50q98 0 139 53t41 162v427h114v-421q0 -166 -68.5 -241.5t-225.5 -75.5q-156 0 -224.5 70.5t-68.5 240.5v427zM440 886h83q-13 -118 -162 -118q-145 0 -160 118h83q7 -55 78 -55q69 0 78 55z" />
    <glyph glyph-name="ubreve" unicode="&#x16d;" horiz-adv-x="576" 
d="M402 0v76q-50 -89 -164 -89q-176 0 -176 209v342h104v-314q0 -33 3.5 -56.5t14.5 -46t33 -34.5t56 -12q65 0 97.5 44.5t32.5 126.5v292h104v-538h-105zM370 725h78q-15 -121 -163 -121q-77 0 -116.5 34t-43.5 87h79q7 -58 82 -58q77 0 84 58z" />
    <glyph glyph-name="Uring" unicode="&#x16e;" horiz-adv-x="724" 
d="M69 725h114v-435q0 -107 40 -157t139 -50q98 0 139 53t41 162v427h114v-421q0 -166 -68.5 -241.5t-225.5 -75.5q-156 0 -224.5 70.5t-68.5 240.5v427zM362 935q39 0 65 -23.5t26 -61.5q0 -37 -26 -61t-65 -24q-38 0 -64 24t-26 61t26 61t64 24zM362 893
q-18 0 -30.5 -12.5t-12.5 -30.5t12.5 -30t30.5 -12t30.5 12t12.5 30t-12.5 30.5t-30.5 12.5z" />
    <glyph glyph-name="uring" unicode="&#x16f;" horiz-adv-x="576" 
d="M402 0v76q-50 -89 -164 -89q-176 0 -176 209v342h104v-314q0 -33 3.5 -56.5t14.5 -46t33 -34.5t56 -12q65 0 97.5 44.5t32.5 126.5v292h104v-538h-105zM286 774q39 0 65.5 -24t26.5 -62t-26.5 -62t-65.5 -24t-65 24t-26 62t26 62t65 24zM286 731q-18 0 -30 -12.5
t-12 -30.5t12 -29.5t30 -11.5t30.5 11.5t12.5 29.5t-12.5 30.5t-30.5 12.5z" />
    <glyph glyph-name="Uhungarumlaut" unicode="&#x170;" horiz-adv-x="724" 
d="M69 725h114v-435q0 -107 40 -157t139 -50q98 0 139 53t41 162v427h114v-421q0 -166 -68.5 -241.5t-225.5 -75.5q-156 0 -224.5 70.5t-68.5 240.5v427zM471 886l-152 -113h-97l108 113h141zM644 886l-152 -113h-96l107 113h141z" />
    <glyph glyph-name="uhungarumlaut" unicode="&#x171;" horiz-adv-x="576" 
d="M379 725l-135 -116h-84l91 116h128zM548 725l-136 -116h-83l91 116h128zM402 0v76q-50 -89 -164 -89q-176 0 -176 209v342h104v-314q0 -33 3.5 -56.5t14.5 -46t33 -34.5t56 -12q65 0 97.5 44.5t32.5 126.5v292h104v-538h-105z" />
    <glyph glyph-name="Uogonek" unicode="&#x172;" horiz-adv-x="724" 
d="M69 725h114v-435q0 -107 40 -157t139 -50q98 0 139 53t41 162v427h114v-421q0 -166 -68.5 -241.5t-225.5 -75.5q-156 0 -224.5 70.5t-68.5 240.5v427zM321 0h114q-89 -44 -89 -79q0 -40 46 -40q21 0 43 8v-67q-27 -10 -66 -10q-47 0 -82 22.5t-35 70.5q0 56 69 95z" />
    <glyph glyph-name="uogonek" unicode="&#x173;" horiz-adv-x="576" 
d="M402 0v76q-50 -89 -164 -89q-176 0 -176 209v342h104v-314q0 -33 3.5 -56.5t14.5 -46t33 -34.5t56 -12q65 0 97.5 44.5t32.5 126.5v292h104v-538h-105zM402 0h105q-93 -42 -93 -81q0 -38 50 -38q14 0 42 7v-67q-34 -9 -64 -9q-51 0 -86.5 21.5t-35.5 69.5q0 60 82 97z
" />
    <glyph glyph-name="Wcircumflex" unicode="&#x174;" horiz-adv-x="910" 
d="M522 725l134 -586l122 586h120l-175 -725h-137l-131 577l-129 -577h-137l-178 725h125l128 -586l125 586h133zM503 886l133 -113h-114l-67 54l-68 -54h-114l136 113h94z" />
    <glyph glyph-name="wcircumflex" unicode="&#x175;" horiz-adv-x="727" 
d="M209 148l100 390h108l100 -390l92 390h113l-150 -538h-97l-113 416l-110 -416h-98l-149 538h113zM406 725l134 -116h-102l-79 51l-80 -51h-102l137 116h92z" />
    <glyph glyph-name="Ycircumflex" unicode="&#x176;" horiz-adv-x="633" 
d="M-2 725h127l190 -340l194 340h126l-266 -444v-281h-114v283zM364 886l133 -113h-114l-67 54l-68 -54h-114l136 113h94z" />
    <glyph glyph-name="ycircumflex" unicode="&#x177;" horiz-adv-x="480" 
d="M93 -175h-50v83h41q46 0 67 14t39 67l4 12l-194 537h115l130 -401l127 401h108l-190 -550q-35 -99 -71.5 -131t-125.5 -32zM287 725l134 -116h-102l-79 51l-80 -51h-102l137 116h92z" />
    <glyph glyph-name="Ydieresis" unicode="&#x178;" horiz-adv-x="633" 
d="M-2 725h127l190 -340l194 340h126l-266 -444v-281h-114v283zM151 881h98v-103h-98v103zM383 881h99v-103h-99v103z" />
    <glyph glyph-name="Zacute" unicode="&#x179;" horiz-adv-x="630" 
d="M588 725v-95l-416 -531h430v-99h-567v95l417 531h-385v99h521zM519 886l-152 -113h-97l108 113h141z" />
    <glyph glyph-name="zacute" unicode="&#x17a;" horiz-adv-x="491" 
d="M30 0v85l300 368h-280v85h406v-85l-300 -368h306v-85h-432zM423 725l-136 -116h-83l91 116h128z" />
    <glyph glyph-name="Zdotaccent" unicode="&#x17b;" horiz-adv-x="630" 
d="M588 725v-95l-416 -531h430v-99h-567v95l417 531h-385v99h521zM272 882h106v-103h-106v103z" />
    <glyph glyph-name="zdotaccent" unicode="&#x17c;" horiz-adv-x="491" 
d="M30 0v85l300 368h-280v85h406v-85l-300 -368h306v-85h-432zM210 725h98v-105h-98v105z" />
    <glyph glyph-name="Zcaron" unicode="&#x17d;" horiz-adv-x="630" 
d="M588 725v-95l-416 -531h430v-99h-567v95l417 531h-385v99h521zM284 773l-133 113h114l67 -54l69 54h113l-136 -113h-94z" />
    <glyph glyph-name="zcaron" unicode="&#x17e;" horiz-adv-x="491" 
d="M30 0v85l300 368h-280v85h406v-85l-300 -368h306v-85h-432zM213 609l-134 116h103l78 -51l80 51h102l-137 -116h-92z" />
    <glyph glyph-name="uni018F" unicode="&#x18f;" horiz-adv-x="778" 
d="M186 521h-117q31 107 118 162t202 55q154 0 247 -101t93 -273q0 -174 -93 -275.5t-248 -101.5q-116 0 -197 58t-115.5 154.5t-23.5 217.5h558q-8 107 -70 166.5t-150 59.5q-76 0 -129.5 -33t-74.5 -89zM389 82q91 0 152 62t69 176h-440q2 -113 64 -175.5t155 -62.5z" />
    <glyph glyph-name="uni0218" unicode="&#x218;" horiz-adv-x="644" 
d="M344 318l-89 18q-87 18 -144 67t-57 134q0 65 41.5 112t100 68t123.5 21q107 0 181 -51t95 -156h-110q-17 59 -64.5 85.5t-106.5 26.5q-51 0 -97.5 -25t-46.5 -76q0 -81 110 -104l86 -18q51 -11 88 -24t75.5 -36.5t59 -62.5t20.5 -91q0 -102 -83 -160.5t-196 -58.5
q-126 0 -206 65.5t-92 179.5h112q32 -150 190 -150q72 0 116 31t44 84q0 90 -150 121zM273 -128v92h98v-98l-44 -90h-57l39 96h-36z" />
    <glyph glyph-name="uni0219" unicode="&#x219;" horiz-adv-x="525" 
d="M479 388h-103q-21 77 -122 77q-42 0 -74 -17t-32 -48q0 -29 18 -43.5t57 -23.5l77 -15q91 -19 141 -53.5t50 -106.5q0 -79 -64.5 -125t-161.5 -46q-99 0 -160.5 50.5t-71.5 129.5h106q24 -97 129 -97q52 0 85.5 20.5t33.5 55.5q0 61 -103 81l-81 16q-72 14 -114.5 48.5
t-42.5 104.5q0 69 63.5 111t154.5 42q83 0 141.5 -42t73.5 -119zM212 -128v92h98v-98l-44 -90h-57l39 96h-36z" />
    <glyph glyph-name="uni021A" unicode="&#x21a;" horiz-adv-x="583" 
d="M243 -128v92h98v-98l-44 -90h-57l39 96h-36zM235 0v628h-233v97h579v-97h-232v-628h-114z" />
    <glyph glyph-name="uni021B" unicode="&#x21b;" horiz-adv-x="332" 
d="M91 538v138h104v-138h106v-79h-106v-307q0 -42 11.5 -55.5t49.5 -13.5h44v-83h-76q-81 0 -107 27t-26 111v321h-82v79h82zM108 -128v92h98v-98l-44 -90h-57l39 96h-36z" />
    <glyph glyph-name="uni0232" unicode="&#x232;" horiz-adv-x="633" 
d="M-2 725h127l190 -340l194 340h126l-266 -444v-281h-114v283zM468 789h-304v80h304v-80z" />
    <glyph glyph-name="uni0233" unicode="&#x233;" horiz-adv-x="480" 
d="M93 -175h-50v83h41q46 0 67 14t39 67l4 12l-194 537h115l130 -401l127 401h108l-190 -550q-35 -99 -71.5 -131t-125.5 -32zM392 632h-304v81h304v-81z" />
    <glyph glyph-name="uni0237" unicode="&#x237;" horiz-adv-x="244" 
d="M70 -21v559h104v-556q0 -93 -28.5 -125t-112.5 -32h-43v84h24q35 0 45.5 13.5t10.5 56.5z" />
    <glyph glyph-name="uni0259" unicode="&#x259;" horiz-adv-x="582" 
d="M286 459q-104 0 -141 -82h-105q20 72 83 121.5t159 49.5q125 0 196.5 -80.5t71.5 -202.5q0 -124 -74.5 -201t-190.5 -77q-122 0 -191 88.5t-61 222.5h410q-8 75 -50.5 118t-106.5 43zM286 72q134 0 155 144h-300q2 -61 42.5 -102.5t102.5 -41.5z" />
    <glyph glyph-name="circumflex" unicode="&#x2c6;" horiz-adv-x="407" 
d="M251 725l134 -116h-102l-79 51l-80 -51h-102l137 116h92z" />
    <glyph glyph-name="caron" unicode="&#x2c7;" horiz-adv-x="407" 
d="M156 609l-134 116h103l78 -51l80 51h102l-137 -116h-92z" />
    <glyph glyph-name="breve" unicode="&#x2d8;" horiz-adv-x="367" 
d="M267 725h78q-15 -121 -163 -121q-77 0 -116.5 34t-43.5 87h79q7 -58 82 -58q77 0 84 58z" />
    <glyph glyph-name="dotaccent" unicode="&#x2d9;" horiz-adv-x="142" 
d="M22 725h98v-105h-98v105z" />
    <glyph glyph-name="ring" unicode="&#x2da;" horiz-adv-x="227" 
d="M113 774q39 0 65.5 -24t26.5 -62t-26.5 -62t-65.5 -24t-65 24t-26 62t26 62t65 24zM113 731q-17 0 -29.5 -12.5t-12.5 -30.5t12 -29.5t30 -11.5t30.5 11.5t12.5 29.5t-12.5 30.5t-30.5 12.5z" />
    <glyph glyph-name="ogonek" unicode="&#x2db;" horiz-adv-x="240" 
d="M104 0h105q-93 -42 -93 -81q0 -38 50 -38q14 0 42 7v-67q-34 -9 -64 -9q-51 0 -86.5 21.5t-35.5 69.5q0 60 82 97z" />
    <glyph glyph-name="tilde" unicode="&#x2dc;" horiz-adv-x="423" 
d="M275 685q41 0 49 45h77q-9 -64 -43.5 -92t-78.5 -28q-33 0 -73.5 23.5t-59.5 23.5q-40 0 -46 -44h-78q9 62 43 90.5t79 28.5q32 0 71 -23.5t60 -23.5z" />
    <glyph glyph-name="hungarumlaut" unicode="&#x2dd;" horiz-adv-x="432" 
d="M241 725l-135 -116h-84l91 116h128zM410 725l-136 -116h-83l91 116h128z" />
    <glyph glyph-name="uni0326" unicode="&#x326;" horiz-adv-x="145" 
d="M25 -128v92h98v-98l-44 -90h-57l39 96h-36z" />
    <glyph glyph-name="uni032C" unicode="&#x32c;" horiz-adv-x="407" 
d="M167 -138l-145 138h107l74 -65l76 65h106l-148 -138h-70z" />
    <glyph glyph-name="uni0394" unicode="&#x394;" horiz-adv-x="696" 
d="M-4 0l353 730l351 -730h-704zM549 94l-200 419l-202 -419h402z" />
    <glyph glyph-name="uni0394" unicode="&#x2206;" horiz-adv-x="696" 
d="M-4 0l353 730l351 -730h-704zM549 94l-200 419l-202 -419h402z" />
    <glyph glyph-name="uni03A9" unicode="&#x3a9;" horiz-adv-x="794" 
d="M397 738q94 0 173 -35.5t130 -109t51 -171.5q0 -94 -55 -170.5t-142 -105.5v-50h196v-96h-298v206q86 14 139 76t53 144q0 99 -68.5 162t-178.5 63q-109 0 -178 -63t-69 -162q0 -82 53 -144t139 -76v-206h-298v96h196v50q-87 28 -142 105.5t-55 170.5q0 98 51 171.5
t130 109t173 35.5z" />
    <glyph glyph-name="uni03A9" unicode="&#x2126;" horiz-adv-x="794" 
d="M397 738q94 0 173 -35.5t130 -109t51 -171.5q0 -94 -55 -170.5t-142 -105.5v-50h196v-96h-298v206q86 14 139 76t53 144q0 99 -68.5 162t-178.5 63q-109 0 -178 -63t-69 -162q0 -82 53 -144t139 -76v-206h-298v96h196v50q-87 28 -142 105.5t-55 170.5q0 98 51 171.5
t130 109t173 35.5z" />
    <glyph glyph-name="pi" unicode="&#x3c0;" horiz-adv-x="655" 
d="M211 0h-102v442h-77v96h586v-96h-79v-288q0 -42 9 -54.5t46 -12.5h28v-87h-46q-83 0 -110 27.5t-27 115.5v299h-228v-442z" />
    <glyph glyph-name="uni0401" unicode="&#x401;" horiz-adv-x="619" 
d="M85 0v725h502v-97h-388v-207h366v-96h-366v-228h388v-97h-502zM171 871h98v-103h-98v103zM403 871h99v-103h-99v103z" />
    <glyph glyph-name="uni0402" unicode="&#x402;" horiz-adv-x="799" 
d="M343 326v-326h-114v628h-216v97h587v-97h-257v-207q103 24 176 24q110 0 167.5 -57.5t57.5 -163.5q0 -124 -67 -179.5t-168 -55.5q-48 0 -92 10l11 94q38 -8 77 -8q59 0 92 33.5t33 101.5q0 131 -133 131q-69 0 -154 -25z" />
    <glyph glyph-name="uni0403" unicode="&#x403;" horiz-adv-x="562" 
d="M504 886l-152 -113h-97l108 113h141zM562 725v-97h-363v-628h-114v725h477z" />
    <glyph glyph-name="uni0404" unicode="&#x404;" horiz-adv-x="746" 
d="M596 236h111q-12 -113 -98.5 -181t-216.5 -68q-161 0 -252.5 102.5t-91.5 273.5q0 170 93 272.5t256 102.5q126 0 209.5 -68.5t97.5 -180.5h-112q-12 75 -66.5 114.5t-133.5 39.5q-91 0 -152.5 -61t-73.5 -165h332v-96h-333q8 -110 71 -174.5t157 -64.5q82 0 138 38.5
t65 115.5z" />
    <glyph glyph-name="uni0405" unicode="&#x405;" horiz-adv-x="644" 
d="M344 318l-89 18q-87 18 -144 67t-57 134q0 65 41.5 112t100 68t123.5 21q107 0 181 -51t95 -156h-110q-17 59 -64.5 85.5t-106.5 26.5q-51 0 -97.5 -25t-46.5 -76q0 -81 110 -104l86 -18q51 -11 88 -24t75.5 -36.5t59 -62.5t20.5 -91q0 -102 -83 -160.5t-196 -58.5
q-126 0 -206 65.5t-92 179.5h112q32 -150 190 -150q72 0 116 31t44 84q0 90 -150 121z" />
    <glyph glyph-name="uni0406" unicode="&#x406;" horiz-adv-x="279" 
d="M194 725v-725h-114v725h114z" />
    <glyph glyph-name="uni0407" unicode="&#x407;" horiz-adv-x="274" 
d="M194 725v-725h-114v725h114zM-27 871h98v-103h-98v103zM205 871h99v-103h-99v103z" />
    <glyph glyph-name="uni0408" unicode="&#x408;" horiz-adv-x="566" 
d="M249 -13q-114 0 -176 64.5t-62 182.5h110q0 -74 35 -114t93 -40q55 0 89 38t34 120v487h114v-488q0 -118 -62 -184t-175 -66z" />
    <glyph glyph-name="uni0409" unicode="&#x409;" horiz-adv-x="1038" 
d="M629 462h69q72 0 125 -10t96.5 -34.5t66 -71.5t22.5 -115t-22.5 -114.5t-66 -71t-96.5 -35t-125 -10.5h-183v628h-235l-7 -160q-5 -113 -17 -193t-35 -145t-62 -97.5t-95 -32.5h-35v102h14q23 0 41.5 13.5t31 42t21 60.5t14 82.5t9 94.5t6.5 109l9 221h454v-263zM629 97
h73q43 0 74.5 5.5t59 19t42 41t14.5 68.5t-14 68.5t-42 41.5t-59.5 19t-74.5 5h-73v-268z" />
    <glyph glyph-name="uni040A" unicode="&#x40a;" horiz-adv-x="1070" 
d="M199 0h-114v725h114v-301h348v301h114v-263h69q72 0 125 -10t96.5 -34.5t66 -71.5t22.5 -115t-22.5 -114.5t-66 -71t-96.5 -35t-125 -10.5h-183v327h-348v-327zM661 365v-268h73q43 0 74.5 5.5t59 19t42 41t14.5 68.5t-14 68.5t-42 41.5t-59.5 19t-74.5 5h-73z" />
    <glyph glyph-name="uni040B" unicode="&#x40b;" horiz-adv-x="798" 
d="M519 445q116 0 170 -53t54 -165v-227h-114v192q0 90 -33 122.5t-112 32.5q-56 0 -141 -20v-327h-114v628h-216v97h587v-97h-257v-209q104 26 176 26z" />
    <glyph glyph-name="uni040C" unicode="&#x40c;" 
d="M510 886l-152 -113h-97l108 113h141zM527 0l-245 326h-83v-326h-114v725h114v-303h83l235 303h136l-277 -344l287 -381h-136z" />
    <glyph glyph-name="uni040E" unicode="&#x40e;" horiz-adv-x="656" 
d="M191 -14h-78v97h70q58 0 85 45l10 17l-268 580h122l203 -464l187 464h125l-263 -601q-63 -138 -193 -138zM435 886h83q-6 -56 -51.5 -88.5t-128.5 -32.5q-81 0 -126 32t-52 89h83q7 -58 96 -58q85 0 96 58z" />
    <glyph glyph-name="uni040F" unicode="&#x40f;" horiz-adv-x="730" 
d="M415 0v-150h-98v150h-232v725h114v-628h332v628h114v-725h-230z" />
    <glyph glyph-name="uni0410" unicode="&#x410;" horiz-adv-x="668" 
d="M0 0l269 725h126l273 -725h-124l-57 159h-315l-56 -159h-116zM328 601l-122 -346h246z" />
    <glyph glyph-name="uni0411" unicode="&#x411;" horiz-adv-x="658" 
d="M199 628v-186h161q263 0 263 -216q0 -226 -268 -226h-270v725h491v-97h-377zM199 94h158q72 0 111 33.5t39 96.5q0 67 -38 95.5t-115 28.5h-155v-254z" />
    <glyph glyph-name="uni0412" unicode="&#x412;" horiz-adv-x="675" 
d="M85 0v725h267q257 0 257 -182q0 -51 -22 -94t-58 -63q109 -49 109 -172q0 -110 -73 -162t-192 -52h-288zM199 330v-236h177q145 0 145 120q0 60 -36.5 88t-114.5 28h-171zM199 631v-213h167q128 0 128 111q0 50 -34.5 76t-93.5 26h-167z" />
    <glyph glyph-name="uni0413" unicode="&#x413;" horiz-adv-x="562" 
d="M562 725v-97h-363v-628h-114v725h477z" />
    <glyph glyph-name="uni0414" unicode="&#x414;" horiz-adv-x="763" 
d="M733 97v-247h-104v150h-500v-150h-104v247h14q70 0 96 95.5t30 286.5l6 246h470v-628h92zM527 97v531h-248l-5 -200q-4 -133 -22.5 -209.5t-65.5 -121.5h341z" />
    <glyph glyph-name="uni0415" unicode="&#x415;" horiz-adv-x="619" 
d="M85 0v725h502v-97h-388v-207h366v-96h-366v-228h388v-97h-502z" />
    <glyph glyph-name="uni0416" unicode="&#x416;" horiz-adv-x="1006" 
d="M446 0v326h-75l-223 -326h-133l258 381l-244 344h132l208 -302h77v302h114v-302h76l209 302h130l-242 -345l258 -380h-132l-222 326h-77v-326h-114z" />
    <glyph glyph-name="uni0417" unicode="&#x417;" horiz-adv-x="632" 
d="M462 383q128 -39 128 -176q0 -108 -75.5 -163.5t-191.5 -55.5q-128 0 -200 59.5t-91 167.5h109q24 -133 185 -133q71 0 109 33.5t38 94.5q0 117 -151 117h-90v94h83q64 0 102 28t38 81q0 113 -133 113q-69 0 -118 -37t-55 -104h-110q12 107 86.5 171.5t190.5 64.5
q111 0 182.5 -52t71.5 -143q0 -105 -108 -160z" />
    <glyph glyph-name="uni0418" unicode="&#x418;" horiz-adv-x="767" 
d="M197 0h-112v725h112v-558l373 558h112v-725h-112v558z" />
    <glyph glyph-name="uni0419" unicode="&#x419;" horiz-adv-x="767" 
d="M491 886h83q-6 -56 -51.5 -88.5t-128.5 -32.5q-81 0 -126 32t-52 89h83q7 -58 96 -58q85 0 96 58zM197 0h-112v725h112v-558l373 558h112v-725h-112v558z" />
    <glyph glyph-name="uni041A" unicode="&#x41a;" 
d="M527 0l-245 326h-83v-326h-114v725h114v-303h83l235 303h136l-277 -344l287 -381h-136z" />
    <glyph glyph-name="uni041B" unicode="&#x41b;" horiz-adv-x="724" 
d="M639 0h-114v628h-245l-7 -160q-5 -113 -17 -193t-35 -145t-62 -97.5t-95 -32.5h-35v102h14q23 0 41.5 13.5t31 42t21 60.5t14 82.5t9 94.5t6.5 109l9 221h464v-725z" />
    <glyph glyph-name="uni041C" unicode="&#x41c;" horiz-adv-x="898" 
d="M508 0h-118l-193 610v-610h-112v725h183l181 -592l181 592h183v-725h-112v610z" />
    <glyph glyph-name="uni041D" unicode="&#x41d;" horiz-adv-x="762" 
d="M563 725h114v-725h-114v325h-364v-325h-114v725h114v-304h364v304z" />
    <glyph glyph-name="uni041E" unicode="&#x41e;" horiz-adv-x="781" 
d="M165 363q0 -132 63.5 -206.5t162.5 -74.5q97 0 161 75t64 206q0 132 -63.5 206t-161.5 74q-99 0 -162.5 -74t-63.5 -206zM733 363q0 -168 -93 -272t-249 -104q-157 0 -250 104t-93 272q0 167 93 271t250 104q156 0 249 -104t93 -271z" />
    <glyph glyph-name="uni041F" unicode="&#x41f;" horiz-adv-x="744" 
d="M659 0h-114v628h-346v-628h-114v725h574v-725z" />
    <glyph glyph-name="uni0420" unicode="&#x420;" horiz-adv-x="634" 
d="M80 725h233q70 0 119.5 -8.5t94 -31.5t67.5 -68.5t23 -114.5q0 -66 -22 -110.5t-65 -68t-94.5 -33t-122.5 -9.5h-119v-281h-114v725zM317 631h-123v-254h126q43 0 71 4t55 16t40 38t13 66q0 34 -10 58.5t-25 38t-40.5 21.5t-49 10t-57.5 2z" />
    <glyph glyph-name="uni0421" unicode="&#x421;" horiz-adv-x="726" 
d="M583 236h110q-24 -119 -107 -184t-206 -65q-155 0 -243.5 103.5t-88.5 273.5q0 171 91.5 272.5t247.5 101.5q118 0 200 -65.5t103 -183.5h-110q-18 73 -68.5 113.5t-129.5 40.5q-96 0 -156.5 -73.5t-60.5 -205.5q0 -131 61 -206.5t157 -75.5q80 0 131 40.5t69 113.5z" />
    <glyph glyph-name="uni0422" unicode="&#x422;" horiz-adv-x="583" 
d="M235 0v628h-233v97h579v-97h-232v-628h-114z" />
    <glyph glyph-name="uni0423" unicode="&#x423;" horiz-adv-x="656" 
d="M191 -14h-78v97h70q58 0 85 45l10 17l-268 580h122l203 -464l187 464h125l-263 -601q-63 -138 -193 -138z" />
    <glyph glyph-name="uni0424" unicode="&#x424;" horiz-adv-x="857" 
d="M486 765v-90q150 -8 235.5 -92.5t85.5 -219.5q0 -130 -86 -213t-235 -91v-86h-114v86q-149 6 -235.5 91.5t-86.5 217.5t86.5 215.5t235.5 91.5v90h114zM372 152v430q-93 -6 -149 -63t-56 -154q0 -95 56.5 -151t148.5 -62zM486 582v-430q91 6 147.5 62.5t56.5 150.5
q0 96 -56 152t-148 65z" />
    <glyph glyph-name="uni0425" unicode="&#x425;" horiz-adv-x="659" 
d="M-5 0l268 372l-250 353h136l182 -258l186 258h129l-250 -348l268 -377h-136l-201 282l-203 -282h-129z" />
    <glyph glyph-name="uni0426" unicode="&#x426;" horiz-adv-x="767" 
d="M737 96v-246h-102v150h-550v725h114v-628h332v628h114v-629h92z" />
    <glyph glyph-name="uni0427" unicode="&#x427;" horiz-adv-x="692" 
d="M607 725v-725h-114v280q-106 -23 -187 -23q-247 0 -247 224v244h114v-215q0 -86 40.5 -120.5t128.5 -34.5q75 0 151 17v353h114z" />
    <glyph glyph-name="uni0428" unicode="&#x428;" horiz-adv-x="1010" 
d="M925 0h-840v725h114v-628h249v628h114v-628h249v628h114v-725z" />
    <glyph glyph-name="uni0429" unicode="&#x429;" horiz-adv-x="1047" 
d="M1017 99v-249h-104v150h-828v725h114v-628h249v628h114v-628h249v628h114v-626h92z" />
    <glyph glyph-name="uni042A" unicode="&#x42a;" horiz-adv-x="751" 
d="M319 462h91q73 0 126 -10t96.5 -34.5t66 -71.5t22.5 -115q0 -130 -80.5 -180.5t-230.5 -50.5h-205v628h-203v97h317v-263zM319 96h98q90 0 139 28.5t49 106.5q0 79 -48.5 107t-139.5 28h-98v-270z" />
    <glyph glyph-name="uni042B" unicode="&#x42b;" horiz-adv-x="887" 
d="M281 0h-196v725h114v-263h82q72 0 125 -10t96.5 -34.5t66 -71.5t22.5 -115t-22.5 -114.5t-66 -71t-96.5 -35t-125 -10.5zM199 365v-268h86q43 0 74.5 5.5t59 19t42 41t14.5 68.5t-14 68.5t-42 41.5t-59.5 19t-74.5 5h-86zM802 0h-114v725h114v-725z" />
    <glyph glyph-name="uni042C" unicode="&#x42c;" horiz-adv-x="648" 
d="M85 0v725h114v-263h108q73 0 126 -10t96.5 -34.5t66 -71.5t22.5 -115q0 -130 -80.5 -180.5t-230.5 -50.5h-222zM199 97h112q91 0 141 28t50 106q0 34 -10 58.5t-26.5 39t-42 23t-51.5 11.5t-61 3h-112v-269z" />
    <glyph glyph-name="uni042D" unicode="&#x42d;" horiz-adv-x="746" 
d="M37 236h112q17 -77 70.5 -115.5t133.5 -38.5q94 0 156.5 64.5t70.5 174.5h-331v96h330q-12 104 -73 165t-152 61q-78 0 -130.5 -39t-70.5 -115h-113q23 114 104 181.5t205 67.5q163 0 256 -102.5t93 -272.5q0 -171 -91.5 -273.5t-252.5 -102.5q-127 0 -212 67.5
t-105 181.5z" />
    <glyph glyph-name="uni042E" unicode="&#x42e;" horiz-adv-x="1050" 
d="M668 738q154 0 238 -102.5t84 -272.5t-84 -273t-238 -103q-146 0 -230 91.5t-92 246.5h-147v-325h-114v725h114v-303h149q15 145 97 230.5t223 85.5zM668 82q96 0 150.5 72.5t54.5 208.5t-54 208t-151 72t-151.5 -72t-54.5 -208t54.5 -208.5t151.5 -72.5z" />
    <glyph glyph-name="uni042F" unicode="&#x42f;" horiz-adv-x="693" 
d="M176 0h-134l195 298q-148 57 -148 202q0 225 313 225h206v-725h-114v268h-120q-18 0 -24 1zM394 364h100v264h-100q-93 0 -141 -28t-48 -103q0 -133 189 -133z" />
    <glyph glyph-name="uni0430" unicode="&#x430;" horiz-adv-x="564" 
d="M406 217v39q-134 -13 -194.5 -36.5t-60.5 -72.5q0 -37 27 -58.5t75 -21.5q68 0 110.5 37t42.5 113zM230 -13q-84 0 -138 43t-54 115q0 32 12 58t36.5 44.5t54.5 32.5t73.5 24t87 16.5t99.5 12.5v11q0 127 -116 127q-111 0 -117 -103h-105q6 85 69 134t157 49
q218 0 217 -228q0 -5 -1 -60.5t-1 -68.5q0 -122 15 -194h-100q-5 28 -9 71q-49 -84 -180 -84z" />
    <glyph glyph-name="uni0431" unicode="&#x431;" horiz-adv-x="589" 
d="M322 507q98 0 164.5 -67t66.5 -188q0 -124 -72 -194.5t-178 -70.5q-111 0 -183.5 78t-72.5 222v55q2 152 68.5 240.5t215.5 115.5l182 32v-90l-177 -34q-92 -17 -140 -62.5t-60 -141.5q27 52 76.5 78.5t109.5 26.5zM304 74q64 0 102 46.5t38 129.5q0 81 -39 125.5
t-100 44.5q-64 0 -106.5 -43t-42.5 -126q0 -82 41 -129.5t107 -47.5z" />
    <glyph glyph-name="uni0432" unicode="&#x432;" horiz-adv-x="574" 
d="M75 538h243q60 0 101.5 -11t69.5 -42.5t28 -84.5q0 -83 -73 -116q95 -28 95 -125q0 -81 -56 -120t-150 -39h-258v538zM179 315h131q50 0 75.5 16t25.5 56q0 39 -25.5 53.5t-77.5 14.5h-129v-140zM179 236v-153h139q58 0 86 18.5t28 59.5t-28 58t-88 17h-137z" />
    <glyph glyph-name="uni0433" unicode="&#x433;" horiz-adv-x="440" 
d="M429 455h-250v-455h-104v538h354v-83z" />
    <glyph glyph-name="uni0434" unicode="&#x434;" horiz-adv-x="629" 
d="M599 83v-211h-98v128h-383v-128h-98v211h26q41 0 62 65.5t27 217.5l7 172h380v-455h77zM418 83v372h-179l-7 -120q-11 -196 -66 -252h252z" />
    <glyph glyph-name="uni0435" unicode="&#x435;" horiz-adv-x="583" 
d="M297 76q104 0 141 82h105q-20 -72 -83 -121.5t-159 -49.5q-125 0 -196.5 80.5t-71.5 202.5q0 124 74.5 201t190.5 77q122 0 191 -88.5t61 -222.5h-410q8 -75 50.5 -118t106.5 -43zM297 463q-134 0 -155 -144h300q-2 61 -42.5 102.5t-102.5 41.5z" />
    <glyph glyph-name="uni0436" unicode="&#x436;" horiz-adv-x="822" 
d="M136 0h-125l198 282l-181 256h119l146 -218h66v218h104v-218h65l147 218h120l-181 -254l197 -284h-123l-160 237h-65v-237h-104v237h-63z" />
    <glyph glyph-name="uni0437" unicode="&#x437;" horiz-adv-x="517" 
d="M384 283q98 -29 98 -128q0 -79 -60.5 -123.5t-158.5 -44.5q-95 0 -162.5 45t-73.5 135h104q2 -47 35.5 -71.5t91.5 -24.5q57 0 88.5 20.5t31.5 58.5q0 83 -111 83h-87v83h81q47 0 75 19.5t28 57.5q0 73 -103 73q-49 0 -84.5 -24t-35.5 -72h-104q6 86 68.5 133t156.5 47
t150.5 -44t56.5 -107q0 -75 -85 -116z" />
    <glyph glyph-name="uni0438" unicode="&#x438;" horiz-adv-x="618" 
d="M177 0h-102v538h102v-389l263 389h102v-538h-102v388z" />
    <glyph glyph-name="uni0439" unicode="&#x439;" horiz-adv-x="617" 
d="M315 604q-77 0 -116.5 34t-43.5 87h79q7 -58 82 -58q77 0 84 58h78q-15 -121 -163 -121zM177 0h-102v538h102v-389l263 389h102v-538h-102v388z" />
    <glyph glyph-name="uni043A" unicode="&#x43a;" horiz-adv-x="558" 
d="M423 0l-181 237h-63v-237h-104v538h104v-218h66l164 218h121l-203 -257l221 -281h-125z" />
    <glyph glyph-name="uni043B" unicode="&#x43b;" horiz-adv-x="588" 
d="M513 538v-538h-104v455h-167l-5 -101q-9 -179 -53.5 -266.5t-144.5 -87.5h-19v83h11q48 0 73 67t33 220l8 168h368z" />
    <glyph glyph-name="uni043C" unicode="&#x43c;" horiz-adv-x="764" 
d="M689 538v-538h-100v429l-168 -429h-78l-168 425v-425h-100v538h155l155 -400l149 400h155z" />
    <glyph glyph-name="uni043D" unicode="&#x43d;" horiz-adv-x="620" 
d="M545 0h-104v234h-262v-234h-104v538h104v-221h262v221h104v-538z" />
    <glyph glyph-name="uni043E" unicode="&#x43e;" horiz-adv-x="591" 
d="M144 267q0 -93 44 -142.5t107 -49.5q64 0 108 49.5t44 142.5q0 94 -43.5 143.5t-108.5 49.5q-64 0 -107.5 -48.5t-43.5 -144.5zM295 548q67 0 125 -28.5t97.5 -94t39.5 -158.5q0 -136 -78 -208t-184 -72q-67 0 -124.5 28.5t-97 94t-39.5 157.5q0 93 39.5 158.5t97 94
t124.5 28.5z" />
    <glyph glyph-name="uni043F" unicode="&#x43f;" horiz-adv-x="614" 
d="M539 538v-538h-104v455h-256v-455h-104v538h464z" />
    <glyph glyph-name="uni0440" unicode="&#x440;" horiz-adv-x="607" 
d="M70 538h104v-79q52 89 168 89q98 0 165 -76t67 -204t-67.5 -204.5t-164.5 -76.5q-116 0 -168 89v-251h-104v713zM170 268q0 -95 42 -144.5t106 -49.5q66 0 105.5 52t39.5 142t-39.5 141.5t-105.5 51.5q-64 0 -106 -49t-42 -144z" />
    <glyph glyph-name="uni0441" unicode="&#x441;" horiz-adv-x="559" 
d="M293 548q90 0 155.5 -55.5t77.5 -136.5h-104q-8 46 -45.5 74.5t-88.5 28.5q-61 0 -102.5 -48.5t-41.5 -141.5q0 -94 41.5 -143.5t102.5 -49.5q51 0 89 28t49 75h105q-16 -84 -85.5 -138t-159.5 -54q-115 0 -184 78.5t-69 202.5q0 121 71.5 200.5t188.5 79.5z" />
    <glyph glyph-name="uni0442" unicode="&#x442;" horiz-adv-x="513" 
d="M498 455h-189v-455h-104v455h-190v83h483v-83z" />
    <glyph glyph-name="uni0443" unicode="&#x443;" horiz-adv-x="480" 
d="M93 -175h-50v83h41q46 0 67 14t39 67l4 12l-194 537h115l130 -401l127 401h108l-190 -550q-35 -99 -71.5 -131t-125.5 -32z" />
    <glyph glyph-name="uni0444" unicode="&#x444;" horiz-adv-x="702" 
d="M399 725v-188q69 0 128.5 -28.5t100 -91.5t40.5 -151q0 -133 -79.5 -202t-189.5 -69v-170h-100v170q-51 0 -97 16t-84.5 47.5t-61 85.5t-22.5 123q0 130 78.5 200t186.5 70v188h100zM299 81v370q-64 0 -112.5 -48.5t-48.5 -139.5q0 -89 48.5 -135.5t112.5 -46.5zM399 451
v-370q64 0 112.5 46t48.5 135q0 91 -48.5 140t-112.5 49z" />
    <glyph glyph-name="uni0445" unicode="&#x445;" horiz-adv-x="527" 
d="M506 538l-184 -257l199 -281h-124l-137 194l-137 -194h-117l197 275l-185 263h123l124 -176l126 176h115z" />
    <glyph glyph-name="uni0446" unicode="&#x446;" horiz-adv-x="630" 
d="M523 83h77v-211h-98v128h-427v538h104v-455h240v455h104v-455z" />
    <glyph glyph-name="uni0447" unicode="&#x447;" horiz-adv-x="556" 
d="M481 0h-104v213q-84 -21 -156 -21q-174 0 -174 168v178h104v-158q0 -55 26 -78t84 -23q43 0 116 17v242h104v-538z" />
    <glyph glyph-name="uni0448" unicode="&#x448;" horiz-adv-x="836" 
d="M761 538v-538h-686v538h104v-455h187v455h104v-455h187v455h104z" />
    <glyph glyph-name="uni0449" unicode="&#x449;" horiz-adv-x="868" 
d="M838 83v-211h-98v128h-665v538h104v-455h187v455h104v-455h187v455h104v-455h77z" />
    <glyph glyph-name="uni044A" unicode="&#x44a;" horiz-adv-x="595" 
d="M264 352h95q108 0 157 -41.5t49 -130.5q0 -98 -51.5 -139t-152.5 -41h-201v455h-145v83h249v-186zM264 83h84q58 0 86 23t28 74q0 50 -27.5 69.5t-88.5 19.5h-82v-186z" />
    <glyph glyph-name="uni044B" unicode="&#x44b;" horiz-adv-x="744" 
d="M669 0h-104v538h104v-538zM179 352h96q206 0 206 -172q0 -97 -56 -138.5t-159 -41.5h-191v538h104v-186zM179 83h84q114 0 114 97q0 49 -27.5 69t-87.5 20h-83v-186z" />
    <glyph glyph-name="uni044C" unicode="&#x44c;" horiz-adv-x="537" 
d="M179 352h122q206 0 206 -172q0 -97 -56 -138.5t-159 -41.5h-217v538h104v-186zM179 83h110q114 0 114 97q0 49 -27.5 69t-87.5 20h-109v-186z" />
    <glyph glyph-name="uni044D" unicode="&#x44d;" horiz-adv-x="571" 
d="M28 183h102q12 -48 49.5 -77.5t95.5 -29.5q60 0 103 39t51 114h-221v83h222q-8 71 -51 109t-105 38q-114 0 -139 -106h-102q17 96 85 145.5t160 49.5q119 0 189 -76t70 -203q0 -128 -67.5 -205t-189.5 -77q-92 0 -161.5 49.5t-90.5 146.5z" />
    <glyph glyph-name="uni044E" unicode="&#x44e;" horiz-adv-x="811" 
d="M525 548q65 0 120.5 -28.5t93.5 -94t38 -158.5q0 -136 -75 -208t-177 -72q-93 0 -164.5 63.5t-80.5 183.5h-101v-234h-104v538h104v-221h103q13 112 84 171.5t159 59.5zM525 75q60 0 101 49.5t41 142.5q0 94 -41 143.5t-101 49.5q-57 0 -96.5 -48.5t-39.5 -144.5
q0 -93 40 -142.5t96 -49.5z" />
    <glyph glyph-name="uni044F" unicode="&#x44f;" horiz-adv-x="555" 
d="M139 0h-124l151 214q-107 39 -107 154q0 83 53 126.5t150 43.5h218v-538h-104v186h-107zM272 269h104v186h-106q-49 0 -78 -25t-29 -69q0 -92 109 -92z" />
    <glyph glyph-name="uni0451" unicode="&#x451;" horiz-adv-x="583" 
d="M132 620v105h98v-105h-98zM364 725h99v-105h-99v105zM297 76q104 0 141 82h105q-20 -72 -83 -121.5t-159 -49.5q-125 0 -196.5 80.5t-71.5 202.5q0 124 74.5 201t190.5 77q122 0 191 -88.5t61 -222.5h-410q8 -75 50.5 -118t106.5 -43zM297 463q-134 0 -155 -144h300
q-2 61 -42.5 102.5t-102.5 41.5z" />
    <glyph glyph-name="uni0452" unicode="&#x452;" horiz-adv-x="602" 
d="M410 -175h-42v83h14q44 0 57.5 16t13.5 63v192q0 35 -3.5 59.5t-14 48t-32.5 35t-55 11.5q-67 0 -102 -49.5t-35 -137.5v-146h-104v495h-92v83h92v147h104v-147h182v-83h-182v-177q21 44 66 72t106 28q92 0 133 -54t41 -158v-231q0 -87 -32 -118.5t-115 -31.5z" />
    <glyph glyph-name="uni0453" unicode="&#x453;" horiz-adv-x="440" 
d="M442 725l-136 -116h-83l91 116h128zM429 455h-250v-455h-104v538h354v-83z" />
    <glyph glyph-name="uni0454" unicode="&#x454;" horiz-adv-x="569" 
d="M436 179h105q-16 -84 -87 -138t-164 -54q-115 0 -186 79t-71 202q0 121 73 200.5t191 79.5q93 0 160 -55.5t79 -136.5h-104q-9 46 -47.5 74.5t-92.5 28.5q-55 0 -97 -38t-51 -109h219v-83h-220q9 -75 51 -114t98 -39q54 0 93.5 27.5t50.5 75.5z" />
    <glyph glyph-name="uni0455" unicode="&#x455;" horiz-adv-x="525" 
d="M479 388h-103q-21 77 -122 77q-42 0 -74 -17t-32 -48q0 -29 18 -43.5t57 -23.5l77 -15q91 -19 141 -53.5t50 -106.5q0 -79 -64.5 -125t-161.5 -46q-99 0 -160.5 50.5t-71.5 129.5h106q24 -97 129 -97q52 0 85.5 20.5t33.5 55.5q0 61 -103 81l-81 16q-72 14 -114.5 48.5
t-42.5 104.5q0 69 63.5 111t154.5 42q83 0 141.5 -42t73.5 -119z" />
    <glyph glyph-name="uni0456" unicode="&#x456;" horiz-adv-x="244" 
d="M70 538h104v-538h-104v538zM75 725h104v-115h-104v115z" />
    <glyph glyph-name="uni0457" unicode="&#x457;" horiz-adv-x="254" 
d="M-37 620v105h98v-105h-98zM195 725h99v-105h-99v105zM75 538h104v-538h-104v538z" />
    <glyph glyph-name="uni0458" unicode="&#x458;" horiz-adv-x="244" 
d="M70 -21v559h104v-556q0 -93 -28.5 -125t-112.5 -32h-43v84h24q35 0 45.5 13.5t10.5 56.5zM75 725h104v-115h-104v115z" />
    <glyph glyph-name="uni0459" unicode="&#x459;" horiz-adv-x="845" 
d="M513 352h96q206 0 206 -172q0 -97 -56 -138.5t-159 -41.5h-191v455h-167l-5 -101q-9 -179 -53.5 -266.5t-144.5 -87.5h-19v83h11q48 0 73 67t33 220l8 168h368v-186zM513 83h84q114 0 114 97q0 49 -27.5 69t-87.5 20h-83v-186z" />
    <glyph glyph-name="uni045A" unicode="&#x45a;" horiz-adv-x="862" 
d="M179 0h-104v538h104v-223h247v223h104v-186h96q206 0 206 -172q0 -97 -56 -138.5t-159 -41.5h-191v232h-247v-232zM530 269v-186h84q114 0 114 97q0 49 -27.5 69t-87.5 20h-83z" />
    <glyph glyph-name="uni045B" unicode="&#x45b;" horiz-adv-x="603" 
d="M212 0h-104v495h-93v83h93v147h104v-147h182v-83h-182v-177q22 45 66 72.5t107 27.5q92 0 132.5 -54t40.5 -158v-206h-104v179q0 75 -20.5 114.5t-83.5 39.5q-68 0 -103 -49.5t-35 -137.5v-146z" />
    <glyph glyph-name="uni045C" unicode="&#x45c;" horiz-adv-x="558" 
d="M447 725l-136 -116h-83l91 116h128zM423 0l-181 237h-63v-237h-104v538h104v-218h66l164 218h121l-203 -257l221 -281h-125z" />
    <glyph glyph-name="uni045E" unicode="&#x45e;" horiz-adv-x="480" 
d="M249 604q-77 0 -116.5 34t-43.5 87h79q7 -58 82 -58q77 0 84 58h78q-15 -121 -163 -121zM93 -175h-50v83h41q46 0 67 14t39 67l4 12l-194 537h115l130 -401l127 401h108l-190 -550q-35 -99 -71.5 -131t-125.5 -32z" />
    <glyph glyph-name="uni045F" unicode="&#x45f;" horiz-adv-x="598" 
d="M523 0h-175v-128h-98v128h-175v538h104v-455h240v455h104v-538z" />
    <glyph glyph-name="uni0462" unicode="&#x462;" horiz-adv-x="690" 
d="M265 438h85q150 0 230 -47.5t80 -168.5q0 -64 -22.5 -108.5t-65.5 -69t-96.5 -34.5t-125.5 -10h-199v541h-149v96h149v88h114v-88h210v-96h-210v-103zM264 97h92q91 0 139.5 27t48.5 98q0 70 -47.5 94.5t-140.5 24.5h-92v-244z" />
    <glyph glyph-name="uni0463" unicode="&#x463;" horiz-adv-x="573" 
d="M339 0h-219v479h-105v83h105v163h104v-163h159v-83h-159v-120h113q106 0 156 -42t50 -133q0 -184 -204 -184zM224 276v-193h102q58 0 86 24t28 76q0 51 -28.5 72t-88.5 21h-99z" />
    <glyph glyph-name="uni0472" unicode="&#x472;" horiz-adv-x="781" 
d="M733 363q0 -168 -93 -272t-249 -104q-157 0 -250 104t-93 272q0 167 93 271t250 104q156 0 249 -104t93 -271zM391 643q-86 0 -147 -57.5t-75 -162.5h443q-14 104 -74.5 162t-146.5 58zM391 82q91 0 153 64.5t71 180.5h-449q9 -116 71.5 -180.5t153.5 -64.5z" />
    <glyph glyph-name="uni0473" unicode="&#x473;" horiz-adv-x="595" 
d="M34 269q0 137 75.5 209.5t187.5 72.5q113 0 188.5 -72.5t75.5 -209.5t-75.5 -209.5t-188.5 -72.5q-112 0 -187.5 72.5t-75.5 209.5zM144 312h307q-8 75 -49 113.5t-105 38.5q-62 0 -103.5 -38.5t-49.5 -113.5zM450 229h-307q7 -76 48.5 -115.5t104.5 -39.5q65 0 106 39.5
t48 115.5z" />
    <glyph glyph-name="uni0474" unicode="&#x474;" horiz-adv-x="709" 
d="M384 0h-123l-256 725h122l199 -591l141 418q30 90 75.5 131.5t120.5 41.5h36v-97h-16q-44 0 -68 -22t-42 -77z" />
    <glyph glyph-name="uni0475" unicode="&#x475;" horiz-adv-x="547" 
d="M310 0h-104l-201 538h115l142 -414l94 278q24 75 63 105.5t111 30.5h17v-86h-6q-36 0 -55.5 -17.5t-39.5 -70.5z" />
    <glyph glyph-name="uni0490" unicode="&#x490;" horiz-adv-x="562" 
d="M562 628h-363v-628h-114v725h371v150h106v-247z" />
    <glyph glyph-name="uni0491" unicode="&#x491;" horiz-adv-x="440" 
d="M429 455h-250v-455h-104v538h256v124h98v-207z" />
    <glyph glyph-name="uni0492" unicode="&#x492;" horiz-adv-x="555" 
d="M218 628v-197h180v-96h-180v-335h-114v335h-90v96h90v294h477v-97h-363z" />
    <glyph glyph-name="uni0493" unicode="&#x493;" horiz-adv-x="452" 
d="M191 455v-134h151v-83h-151v-238h-104v238h-69v83h69v217h354v-83h-250z" />
    <glyph glyph-name="uni0496" unicode="&#x496;" horiz-adv-x="1027" 
d="M1012 -150h-102v150h-52l-222 326h-77v-326h-113v326h-75l-223 -326h-133l258 381l-244 344h132l208 -303h77v303h113v-303h76l209 303h130l-242 -345l191 -282h89v-248z" />
    <glyph glyph-name="uni0497" unicode="&#x497;" horiz-adv-x="849" 
d="M842 86v-214h-98v128h-57l-159 237h-65v-237h-104v237h-63l-160 -237h-125l198 282l-181 256h119l146 -218h66v218h104v-218h65l147 218h120l-181 -254l137 -198h91z" />
    <glyph glyph-name="uni049A" unicode="&#x49a;" horiz-adv-x="694" 
d="M679 -150h-102v150h-50l-245 326h-83v-326h-114v725h114v-303h83l235 303h136l-277 -344l214 -283h89v-248z" />
    <glyph glyph-name="uni049B" unicode="&#x49b;" horiz-adv-x="575" 
d="M568 -128h-98v128h-46l-181 237h-64v-237h-104v538h104v-218h67l164 218h118l-203 -257l153 -195h90v-214z" />
    <glyph glyph-name="uni04A2" unicode="&#x4a2;" horiz-adv-x="794" 
d="M677 725v-627h92v-248h-102v150h-104v325h-364v-325h-114v725h114v-304h364v304h114z" />
    <glyph glyph-name="uni04A3" unicode="&#x4a3;" horiz-adv-x="642" 
d="M612 86v-214h-98v128h-83v234h-252v-234h-104v538h104v-221h252v221h104v-452h77z" />
    <glyph glyph-name="uni04AE" unicode="&#x4ae;" horiz-adv-x="633" 
d="M-2 725h127l190 -340l194 340h126l-266 -444v-281h-114v283z" />
    <glyph glyph-name="uni04AF" unicode="&#x4af;" horiz-adv-x="517" 
d="M313 -175h-104v159l-209 554h114l149 -435l145 435h109l-204 -550v-163z" />
    <glyph glyph-name="uni04B0" unicode="&#x4b0;" horiz-adv-x="641" 
d="M635 725l-259 -433h142v-96h-149v-196h-114v196h-140v96h135l-252 433h127l190 -340l194 340h126z" />
    <glyph glyph-name="uni04B1" unicode="&#x4b1;" horiz-adv-x="517" 
d="M313 -175h-104v106h-106v83h96l-199 524h114l149 -431l145 431h109l-197 -524h97v-83h-104v-106z" />
    <glyph glyph-name="uni04B2" unicode="&#x4b2;" horiz-adv-x="727" 
d="M712 -150h-102v150h-52l-206 282l-207 -282h-130l273 372l-255 353h135l188 -259l190 259h131l-256 -349l202 -278h89v-248z" />
    <glyph glyph-name="uni04B3" unicode="&#x4b3;" horiz-adv-x="562" 
d="M555 -128h-98v128h-55l-137 194l-137 -194h-117l197 275l-185 263h123l124 -176l125 176h116l-184 -257l138 -195h90v-214z" />
    <glyph glyph-name="uni04B6" unicode="&#x4b6;" horiz-adv-x="724" 
d="M699 -150h-102v150h-104v280q-106 -23 -190 -23q-244 0 -244 224v244h114v-215q0 -86 39.5 -121t128.5 -35q73 0 152 17v354h114v-624h92v-251z" />
    <glyph glyph-name="uni04B7" unicode="&#x4b7;" horiz-adv-x="588" 
d="M558 88v-216h-98v128h-83v213q-84 -21 -156 -21q-174 0 -174 168v178h104v-157q0 -56 26 -79.5t84 -23.5q39 0 116 18v242h104v-450h77z" />
    <glyph glyph-name="uni04BA" unicode="&#x4ba;" horiz-adv-x="689" 
d="M386 468q248 4 248 -224v-244h-114v215q0 87 -40.5 123t-129.5 34q-72 0 -151 -17v-355h-114v725h114v-280q99 22 187 23z" />
    <glyph glyph-name="uni04BB" unicode="&#x4bb;" horiz-adv-x="583" 
d="M174 725v-265q51 88 169 88q180 0 180 -209v-339h-104v311q0 33 -3.5 56.5t-14.5 46.5t-34 35t-59 12q-67 0 -100.5 -44.5t-33.5 -127.5v-289h-104v725h104z" />
    <glyph glyph-name="uni04C0" unicode="&#x4c0;" horiz-adv-x="284" 
d="M199 725v-725h-114v725h114z" />
    <glyph glyph-name="uni04CF" unicode="&#x4cf;" horiz-adv-x="244" 
d="M174 725v-725h-104v725h104z" />
    <glyph glyph-name="uni04D8" unicode="&#x4d8;" horiz-adv-x="778" 
d="M186 521h-117q31 107 118 162t202 55q154 0 247 -101t93 -273q0 -174 -93 -275.5t-248 -101.5q-116 0 -197 58t-115.5 154.5t-23.5 217.5h558q-8 107 -70 166.5t-150 59.5q-76 0 -129.5 -33t-74.5 -89zM389 82q91 0 152 62t69 176h-440q2 -113 64 -175.5t155 -62.5z" />
    <glyph glyph-name="uni04D9" unicode="&#x4d9;" horiz-adv-x="583" 
d="M285 -13q-123 0 -191 88t-60 223h401q0 73 -44 118t-108 45q-100 0 -137 -82h-105q20 73 81.5 122t157.5 49q125 0 195 -81t70 -204q0 -124 -72.5 -201t-187.5 -77zM285 72q63 0 104.5 37t45.5 107h-293q2 -62 41 -103t102 -41z" />
    <glyph glyph-name="uni04E2" unicode="&#x4e2;" horiz-adv-x="767" 
d="M197 0h-112v725h112v-558l373 558h112v-725h-112v558zM553 789h-304v80h304v-80z" />
    <glyph glyph-name="uni04E3" unicode="&#x4e3;" horiz-adv-x="618" 
d="M177 0h-102v538h102v-389l263 389h102v-538h-102v388zM472 632h-304v81h304v-81z" />
    <glyph glyph-name="uni04E8" unicode="&#x4e8;" horiz-adv-x="781" 
d="M733 363q0 -168 -93 -272t-249 -104q-157 0 -250 104t-93 272q0 167 93 271t250 104q156 0 249 -104t93 -271zM391 643q-86 0 -147 -57.5t-75 -162.5h443q-14 104 -74.5 162t-146.5 58zM391 82q91 0 153 64.5t71 180.5h-449q9 -116 71.5 -180.5t153.5 -64.5z" />
    <glyph glyph-name="uni04E9" unicode="&#x4e9;" horiz-adv-x="595" 
d="M295 548q67 0 125 -28.5t97.5 -94t39.5 -158.5q0 -136 -78 -208t-184 -72q-67 0 -124.5 28.5t-97 94t-39.5 157.5q0 93 39.5 158.5t97 94t124.5 28.5zM295 460q-56 0 -97.5 -36t-52.5 -107h301q-11 70 -53.5 106.5t-97.5 36.5zM295 75q57 0 101 41t52 118h-305
q8 -77 51.5 -118t100.5 -41z" />
    <glyph glyph-name="uni04EE" unicode="&#x4ee;" horiz-adv-x="656" 
d="M191 -14h-78v97h70q58 0 85 45l10 17l-268 580h122l203 -464l187 464h125l-263 -601q-63 -138 -193 -138zM502 789h-304v80h304v-80z" />
    <glyph glyph-name="uni04EF" unicode="&#x4ef;" horiz-adv-x="480" 
d="M393 632h-304v81h304v-81zM93 -175h-50v83h41q46 0 67 14t39 67l4 12l-194 537h115l130 -401l127 401h108l-190 -550q-35 -99 -71.5 -131t-125.5 -32z" />
    <glyph glyph-name="Wgrave" unicode="&#x1e80;" horiz-adv-x="910" 
d="M522 725l134 -586l122 586h120l-175 -725h-137l-131 577l-129 -577h-137l-178 725h125l128 -586l125 586h133zM411 773l-156 113h140l109 -113h-93z" />
    <glyph glyph-name="wgrave" unicode="&#x1e81;" horiz-adv-x="727" 
d="M209 148l100 390h108l100 -390l92 390h113l-150 -538h-97l-113 416l-110 -416h-98l-149 538h113zM317 609l-136 116h128l92 -116h-84z" />
    <glyph glyph-name="Wacute" unicode="&#x1e82;" horiz-adv-x="910" 
d="M522 725l134 -586l122 586h120l-175 -725h-137l-131 577l-129 -577h-137l-178 725h125l128 -586l125 586h133zM655 886l-152 -113h-97l108 113h141z" />
    <glyph glyph-name="wacute" unicode="&#x1e83;" horiz-adv-x="727" 
d="M209 148l100 390h108l100 -390l92 390h113l-150 -538h-97l-113 416l-110 -416h-98l-149 538h113zM536 725l-136 -116h-83l91 116h128z" />
    <glyph glyph-name="Wdieresis" unicode="&#x1e84;" horiz-adv-x="910" 
d="M522 725l134 -586l122 586h120l-175 -725h-137l-131 577l-129 -577h-137l-178 725h125l128 -586l125 586h133zM290 881h98v-103h-98v103zM522 881h99v-103h-99v103z" />
    <glyph glyph-name="wdieresis" unicode="&#x1e85;" horiz-adv-x="727" 
d="M209 148l100 390h108l100 -390l92 390h113l-150 -538h-97l-113 416l-110 -416h-98l-149 538h113zM194 620v105h98v-105h-98zM426 725h99v-105h-99v105z" />
    <glyph glyph-name="uni1ECA" unicode="&#x1eca;" horiz-adv-x="274" 
d="M194 725v-725h-114v725h114zM88 -71h98v-104h-98v104z" />
    <glyph glyph-name="uni1ECB" unicode="&#x1ecb;" horiz-adv-x="244" 
d="M70 725h104v-115h-104v115zM70 538h104v-538h-104v538zM73 -71h98v-104h-98v104z" />
    <glyph glyph-name="uni1ECC" unicode="&#x1ecc;" horiz-adv-x="781" 
d="M165 363q0 -132 63.5 -206.5t162.5 -74.5q97 0 161 75t64 206q0 132 -63.5 206t-161.5 74q-99 0 -162.5 -74t-63.5 -206zM733 363q0 -168 -93 -272t-249 -104q-157 0 -250 104t-93 272q0 167 93 271t250 104q156 0 249 -104t93 -271zM342 -71h98v-104h-98v104z" />
    <glyph glyph-name="uni1ECD" unicode="&#x1ecd;" horiz-adv-x="591" 
d="M144 267q0 -93 44 -142.5t107 -49.5q64 0 108 49.5t44 142.5q0 94 -43.5 143.5t-108.5 49.5q-64 0 -107.5 -48.5t-43.5 -144.5zM295 548q67 0 125 -28.5t97.5 -94t39.5 -158.5q0 -136 -78 -208t-184 -72q-67 0 -124.5 28.5t-97 94t-39.5 157.5q0 93 39.5 158.5t97 94
t124.5 28.5zM244 -71h98v-104h-98v104z" />
    <glyph glyph-name="uni1EE4" unicode="&#x1ee4;" horiz-adv-x="724" 
d="M69 725h114v-435q0 -107 40 -157t139 -50q98 0 139 53t41 162v427h114v-421q0 -166 -68.5 -241.5t-225.5 -75.5q-156 0 -224.5 70.5t-68.5 240.5v427zM313 -71h98v-104h-98v104z" />
    <glyph glyph-name="uni1EE5" unicode="&#x1ee5;" horiz-adv-x="576" 
d="M402 0v76q-50 -89 -164 -89q-176 0 -176 209v342h104v-314q0 -33 3.5 -56.5t14.5 -46t33 -34.5t56 -12q65 0 97.5 44.5t32.5 126.5v292h104v-538h-105zM238 -71h98v-104h-98v104z" />
    <glyph glyph-name="Ygrave" unicode="&#x1ef2;" horiz-adv-x="633" 
d="M-2 725h127l190 -340l194 340h126l-266 -444v-281h-114v283zM292 773l-156 113h140l109 -113h-93z" />
    <glyph glyph-name="ygrave" unicode="&#x1ef3;" horiz-adv-x="480" 
d="M93 -175h-50v83h41q46 0 67 14t39 67l4 12l-194 537h115l130 -401l127 401h108l-190 -550q-35 -99 -71.5 -131t-125.5 -32zM214 609l-136 116h128l92 -116h-84z" />
    <glyph glyph-name="endash" unicode="&#x2013;" horiz-adv-x="510" 
d="M475 224h-440v96h440v-96z" />
    <glyph glyph-name="emdash" unicode="&#x2014;" horiz-adv-x="724" 
d="M692 224h-660v96h660v-96z" />
    <glyph glyph-name="quoteleft" unicode="&#x2018;" horiz-adv-x="242" 
d="M184 577v-125h-125v134l65 139h64l-58 -148h54z" />
    <glyph glyph-name="quoteright" unicode="&#x2019;" horiz-adv-x="243" 
d="M59 600v125h125v-134l-65 -139h-65l60 148h-55z" />
    <glyph glyph-name="quotesinglbase" unicode="&#x201a;" horiz-adv-x="242" 
d="M59 0v125h125v-134l-65 -139h-65l60 148h-55z" />
    <glyph glyph-name="quotedblleft" unicode="&#x201c;" horiz-adv-x="419" 
d="M184 577v-125h-125v134l65 139h64l-58 -148h54zM360 577v-125h-125v134l65 139h64l-58 -148h54z" />
    <glyph glyph-name="quotedblright" unicode="&#x201d;" horiz-adv-x="419" 
d="M235 600v125h125v-134l-65 -139h-65l60 148h-55zM59 600v125h125v-134l-65 -139h-65l60 148h-55z" />
    <glyph glyph-name="quotedblbase" unicode="&#x201e;" horiz-adv-x="424" 
d="M235 0v125h125v-134l-65 -139h-65l60 148h-55zM59 0v125h125v-134l-65 -139h-65l60 148h-55z" />
    <glyph glyph-name="dagger" unicode="&#x2020;" horiz-adv-x="575" 
d="M338 0h-101v416h-208v97h208v212h101v-212h207v-97h-207v-416z" />
    <glyph glyph-name="daggerdbl" unicode="&#x2021;" horiz-adv-x="575" 
d="M338 286h207v-96h-207v-190h-101v190h-208v96h208v152h-208v96h208v191h101v-191h207v-96h-207v-152z" />
    <glyph glyph-name="bullet" unicode="&#x2022;" horiz-adv-x="447" 
d="M43 279q0 73 52 125t124 52q78 0 131 -51.5t53 -125.5q0 -78 -52.5 -130.5t-131.5 -52.5q-73 0 -124.5 53t-51.5 130z" />
    <glyph glyph-name="ellipsis" unicode="&#x2026;" horiz-adv-x="729" 
d="M427 0h-125v125h125v-125zM670 0h-125v125h125v-125zM184 0h-125v125h125v-125z" />
    <glyph glyph-name="perthousand" unicode="&#x2030;" horiz-adv-x="1417" 
d="M1216 -7q-80 0 -123 57.5t-43 153.5t43 153.5t123 57.5q82 0 125 -57t43 -154t-43 -154t-125 -57zM1216 52q86 0 86 152t-86 152q-40 0 -62 -39t-22 -113t22 -113t62 -39zM201 310q-80 0 -123 57.5t-43 153.5t43 153.5t123 57.5q82 0 125 -57t43 -154t-43 -154t-125 -57z
M201 369q86 0 86 152t-86 152q-40 0 -62 -39t-22 -113t22 -113t62 -39zM314 0h-113l500 725h113zM816 -7q-81 0 -124 57t-43 154t43 154t124 57t124 -57t43 -154t-43 -154t-124 -57zM816 52q85 0 85 152t-85 152t-85 -152t85 -152z" />
    <glyph glyph-name="guilsinglleft" unicode="&#x2039;" horiz-adv-x="304" 
d="M172 44l-159 229l159 228h106l-143 -228l143 -229h-106z" />
    <glyph glyph-name="guilsinglright" unicode="&#x203a;" horiz-adv-x="304" 
d="M291 273l-159 -229h-105l143 229l-143 228h105z" />
    <glyph glyph-name="fraction" unicode="&#x2044;" horiz-adv-x="213" 
d="M-87 0h-113l500 725h113z" />
    <glyph glyph-name="uni2070" unicode="&#x2070;" horiz-adv-x="401" 
d="M201 431q-80 0 -123 57.5t-43 153.5t43 153.5t123 57.5q82 0 125 -57t43 -154t-43 -154t-125 -57zM201 490q86 0 86 152t-86 152q-40 0 -62 -39t-22 -113t22 -113t62 -39z" />
    <glyph glyph-name="uni2074" unicode="&#x2074;" horiz-adv-x="379" 
d="M217 743l-114 -145h114v145zM363 598v-67h-66v-93h-80v93h-201v62l203 253h78v-248h66z" />
    <glyph glyph-name="uni2075" unicode="&#x2075;" horiz-adv-x="370" 
d="M184 490q33 0 54 21.5t21 58.5q0 40 -22 61.5t-54 21.5q-52 0 -71 -41l-73 4l28 230h256v-67h-190l-12 -90q29 23 82 23q57 0 97.5 -37.5t40.5 -103.5t-45 -103t-113 -37q-67 0 -108 37.5t-46 97.5h76q4 -36 24 -56t55 -20z" />
    <glyph glyph-name="uni2076" unicode="&#x2076;" horiz-adv-x="367" 
d="M114 570q0 -38 20 -59t53 -21t53 21t20 59q0 36 -20 58t-53 22t-53 -21t-20 -59zM191 794q-37 0 -59 -32.5t-21 -89.5q31 38 91 38q59 0 99 -39t40 -101q0 -63 -43 -101t-111 -38q-79 0 -118.5 54.5t-39.5 145.5q0 98 40.5 160t126.5 62q64 0 99 -33.5t39 -80.5h-80
q-4 55 -63 55z" />
    <glyph glyph-name="uni2077" unicode="&#x2077;" horiz-adv-x="313" 
d="M11 779v67h301v-67q-85 -81 -123 -156.5t-44 -184.5h-87q2 102 49 189t123 152h-219z" />
    <glyph glyph-name="uni2078" unicode="&#x2078;" horiz-adv-x="378" 
d="M189 853q66 0 106 -29t40 -77q0 -58 -49 -91q61 -35 61 -101q0 -59 -44.5 -91.5t-113.5 -32.5t-113 32.5t-44 91.5q0 67 61 101q-49 31 -49 91q0 47 39.5 76.5t105.5 29.5zM189 626q-35 0 -55 -18t-20 -49t20 -50t55 -19t55.5 19t20.5 50t-20.5 49t-55.5 18zM256 738
q0 26 -17.5 41t-49.5 15q-31 0 -49 -15t-18 -41t18 -42t49 -16q32 0 49.5 15.5t17.5 42.5z" />
    <glyph glyph-name="uni2079" unicode="&#x2079;" horiz-adv-x="364" 
d="M252 714q0 38 -20 59t-53 21t-52.5 -21t-19.5 -59q0 -37 20 -58.5t52 -21.5t52.5 21.5t20.5 58.5zM174 490q38 0 60 32.5t22 89.5q-31 -38 -93 -38q-58 0 -97.5 39t-39.5 101q0 63 42 101t111 38q79 0 118.5 -54.5t39.5 -146.5q0 -97 -41 -159t-127 -62q-62 0 -98 33.5
t-38 79.5h78q6 -54 63 -54z" />
    <glyph glyph-name="uni207A" unicode="&#x207a;" horiz-adv-x="375" 
d="M224 438h-73v116h-121v69h121v116h73v-116h121v-69h-121v-116z" />
    <glyph glyph-name="uni207B" unicode="&#x207b;" horiz-adv-x="368" 
d="M30 623h309v-69h-309v69z" />
    <glyph glyph-name="uni207C" unicode="&#x207c;" horiz-adv-x="369" 
d="M329 611h-289v69h289v-69zM329 495h-289v69h289v-69z" />
    <glyph glyph-name="uni207D" unicode="&#x207d;" horiz-adv-x="180" 
d="M24 591q0 139 78 255h74q-71 -115 -71 -255q0 -139 71 -256h-74q-78 124 -78 256z" />
    <glyph glyph-name="uni207E" unicode="&#x207e;" horiz-adv-x="180" 
d="M155 591q0 -141 -78 -256h-74q70 115 70 256q0 142 -70 255h74q30 -42 54 -111t24 -144z" />
    <glyph glyph-name="uni207F" unicode="&#x207f;" horiz-adv-x="362" 
d="M126 741v-41q25 48 90 48q104 0 104 -122v-188h-79v169q0 37 -10 57t-42 20q-63 0 -63 -88v-158h-79v303h79z" />
    <glyph glyph-name="uni2080" unicode="&#x2080;" horiz-adv-x="401" 
d="M201 -135q-80 0 -123 57.5t-43 153.5t43 153.5t123 57.5q82 0 125 -57t43 -154t-43 -154t-125 -57zM201 -76q86 0 86 152t-86 152q-40 0 -62 -39t-22 -113t22 -113t62 -39z" />
    <glyph glyph-name="uni2081" unicode="&#x2081;" horiz-adv-x="236" 
d="M182 -128h-80v297h-90v56q48 1 71.5 12t37.5 43h61v-408z" />
    <glyph glyph-name="uni2082" unicode="&#x2082;" horiz-adv-x="351" 
d="M179 287q62 0 100.5 -29t38.5 -81q0 -59 -50.5 -116.5t-149.5 -121.5h206v-67h-303v65q133 105 169 144q46 51 46 91q0 27 -16.5 41.5t-43.5 14.5q-30 0 -50 -20t-19 -64h-79q-2 65 39.5 104t111.5 39z" />
    <glyph glyph-name="uni2083" unicode="&#x2083;" horiz-adv-x="366" 
d="M182 -76q33 0 54 17.5t21 46.5q0 63 -95 63h-24v64h20q90 0 90 59q0 26 -19 40t-46 14q-68 0 -78 -70h-77q5 62 48 95.5t112 33.5q57 0 99 -27.5t42 -81.5q0 -29 -16 -52.5t-41 -37.5q31 -14 48.5 -40.5t17.5 -58.5q0 -60 -45.5 -92t-112.5 -32t-109.5 37t-47.5 99h77
q5 -34 26.5 -55.5t55.5 -21.5z" />
    <glyph glyph-name="uni2084" unicode="&#x2084;" horiz-adv-x="379" 
d="M217 177l-114 -145h114v145zM363 32v-67h-66v-93h-80v93h-201v62l203 253h78v-248h66z" />
    <glyph glyph-name="uni2085" unicode="&#x2085;" horiz-adv-x="370" 
d="M184 -76q33 0 54 21.5t21 58.5q0 40 -22 61.5t-54 21.5q-52 0 -71 -41l-73 4l28 230h256v-67h-190l-12 -90q29 23 82 23q57 0 97.5 -37.5t40.5 -103.5t-45 -103t-113 -37q-67 0 -108 37.5t-46 97.5h76q4 -36 24 -56t55 -20z" />
    <glyph glyph-name="uni2086" unicode="&#x2086;" horiz-adv-x="367" 
d="M114 4q0 -38 20 -59t53 -21t53 21t20 59q0 36 -20 58t-53 22t-53 -21t-20 -59zM191 228q-37 0 -59 -32.5t-21 -89.5q31 38 91 38q59 0 99 -39t40 -101q0 -63 -43 -101t-111 -38q-79 0 -118.5 54.5t-39.5 145.5q0 98 40.5 160t126.5 62q64 0 99 -33.5t39 -80.5h-80
q-4 55 -63 55z" />
    <glyph glyph-name="uni2087" unicode="&#x2087;" horiz-adv-x="313" 
d="M11 213v67h301v-67q-85 -81 -123 -156.5t-44 -184.5h-87q2 102 49 189t123 152h-219z" />
    <glyph glyph-name="uni2088" unicode="&#x2088;" horiz-adv-x="378" 
d="M189 287q66 0 106 -29t40 -77q0 -58 -49 -91q61 -35 61 -101q0 -59 -44.5 -91.5t-113.5 -32.5t-113 32.5t-44 91.5q0 67 61 101q-49 31 -49 91q0 47 39.5 76.5t105.5 29.5zM189 60q-35 0 -55 -18t-20 -49t20 -50t55 -19t55.5 19t20.5 50t-20.5 49t-55.5 18zM256 172
q0 26 -17.5 41t-49.5 15q-31 0 -49 -15t-18 -41t18 -42t49 -16q32 0 49.5 15.5t17.5 42.5z" />
    <glyph glyph-name="uni2089" unicode="&#x2089;" horiz-adv-x="364" 
d="M252 148q0 38 -20 59t-53 21t-52.5 -21t-19.5 -59q0 -37 20 -58.5t52 -21.5t52.5 21.5t20.5 58.5zM174 -76q38 0 60 32.5t22 89.5q-31 -38 -93 -38q-58 0 -97.5 39t-39.5 101q0 63 42 101t111 38q79 0 118.5 -54.5t39.5 -146.5q0 -97 -41 -159t-127 -62q-62 0 -98 33.5
t-38 79.5h78q6 -54 63 -54z" />
    <glyph glyph-name="uni208D" unicode="&#x208d;" horiz-adv-x="180" 
d="M24 25q0 139 78 255h74q-71 -115 -71 -255q0 -139 71 -256h-74q-78 124 -78 256z" />
    <glyph glyph-name="uni208E" unicode="&#x208e;" horiz-adv-x="180" 
d="M155 25q0 -141 -78 -256h-74q70 115 70 256q0 142 -70 255h74q30 -42 54 -111t24 -144z" />
    <glyph glyph-name="Euro" unicode="&#x20ac;" horiz-adv-x="716" 
d="M359 254h-150q18 -88 67.5 -135.5t127.5 -47.5q74 0 124 38.5t61 120.5h103q-14 -113 -93 -178t-193 -65q-123 0 -201 70t-103 197h-116l46 69h62q-1 13 -1 43q0 24 1 36h-108l46 68h70q24 125 105.5 196.5t201.5 71.5q112 0 189 -66t91 -177h-103q-12 80 -60.5 120
t-121.5 40q-78 0 -128 -47.5t-68 -137.5h279l-46 -68h-242q-1 -12 -1 -36q0 -30 1 -43h206z" />
    <glyph glyph-name="uni20B4" unicode="&#x20b4;" horiz-adv-x="644" 
d="M321 -13q-115 0 -183.5 51.5t-68.5 141.5q0 58 18 86h-65v76h572v-76h-388q-25 -25 -25 -79q0 -45 36 -74.5t100 -29.5q142 0 153 114h115q-4 -93 -76 -151.5t-188 -58.5zM594 385h-572v76h382q42 29 42 83q0 49 -34 74t-89 25q-124 0 -139 -87h-113q12 83 80 132.5
t170 49.5q100 0 168 -50t68 -136q0 -56 -28 -91h65v-76z" />
    <glyph glyph-name="uni20BD" unicode="&#x20bd;" horiz-adv-x="634" 
d="M222 279v-76h226v-77h-226v-126h-114v126h-88v77h88v76h-88v96h88v350h203q72 0 125 -10t96.5 -34t65.5 -68.5t22 -110.5q0 -121 -81 -172t-228 -51h-89zM222 375h94q89 0 138.5 27t49.5 100t-49.5 99.5t-138.5 26.5h-94v-253z" />
    <glyph glyph-name="uni2113" unicode="&#x2113;" horiz-adv-x="465" 
d="M115 171v27l-72 -55l-46 69l118 90v242q0 194 166 194q69 0 108 -42t39 -114q0 -88 -47.5 -153.5t-147.5 -141.5l-13 -10v-109q0 -53 18 -73t53 -20q49 0 96 40l42 -69q-63 -59 -153 -59q-85 0 -123 43t-38 141zM220 560v-178l7 6q102 77 102 192q0 76 -53 76
q-31 0 -43.5 -21t-12.5 -75z" />
    <glyph glyph-name="uni2116" unicode="&#x2116;" horiz-adv-x="1079" 
d="M1043 556q0 -87 -44 -136t-120 -49t-120.5 49t-44.5 136t46.5 134.5t118.5 47.5q73 0 118.5 -46.5t45.5 -135.5zM948 556q0 49 -18 76.5t-51 27.5q-70 0 -70 -104q0 -106 70 -106q34 0 51.5 28.5t17.5 77.5zM1038 235h-318v96h318v-96zM671 0h-159l-320 600v-600h-112
v725h159l320 -599v599h112v-725z" />
    <glyph glyph-name="uni2117" unicode="&#x2117;" horiz-adv-x="825" 
d="M38 361q0 165 108 271t267 106q158 0 266 -106t108 -271q0 -164 -108 -269t-266 -105q-159 0 -267 105t-108 269zM115 361q0 -134 85 -219.5t213 -85.5q129 0 213.5 85t84.5 220q0 137 -84 222t-214 85q-128 0 -213 -85.5t-85 -221.5zM421 325h-56v-149h-89v399h133
q95 0 141 -26.5t46 -99.5q0 -59 -45 -91.5t-130 -32.5zM507 448q0 56 -81 56h-61v-110h65q77 0 77 54z" />
    <glyph glyph-name="trademark" unicode="&#x2122;" horiz-adv-x="884" 
d="M134 326v324h-127v75h344v-75h-127v-324h-90zM660 326h-85l-103 289v-289h-90v399h142l95 -287l95 287h137v-399h-90v290z" />
    <glyph glyph-name="estimated" unicode="&#x212e;" horiz-adv-x="580" 
d="M498 150h40q-26 -74 -86.5 -118.5t-154.5 -44.5q-127 0 -198.5 79.5t-71.5 201.5q0 124 73 202t192 78q121 0 189.5 -80.5t70.5 -198.5h-410v-193q24 -24 68.5 -39.5t94.5 -15.5q141 0 193 129zM142 462v-160h294v158q-51 54 -145 54q-99 0 -149 -52z" />
    <glyph glyph-name="onethird" unicode="&#x2153;" horiz-adv-x="816" 
d="M182 317h-80v297h-90v56q48 1 71.5 12t37.5 43h61v-408zM149 0h-113l500 725h113zM631 52q33 0 54 17.5t21 46.5q0 63 -95 63h-24v64h20q90 0 90 59q0 26 -19 40t-46 14q-68 0 -78 -70h-77q5 62 48 95.5t112 33.5q57 0 99 -27.5t42 -81.5q0 -29 -16 -52.5t-41 -37.5
q31 -14 48.5 -40.5t17.5 -58.5q0 -60 -45.5 -92t-112.5 -32t-109.5 37t-47.5 99h77q5 -34 26.5 -55.5t55.5 -21.5z" />
    <glyph glyph-name="twothirds" unicode="&#x2154;" horiz-adv-x="931" 
d="M179 732q62 0 100.5 -29t38.5 -81q0 -59 -50.5 -116.5t-149.5 -121.5h206v-67h-303v65q133 105 169 144q46 51 46 91q0 27 -16.5 41.5t-43.5 14.5q-30 0 -50 -20t-19 -64h-79q-2 65 39.5 104t111.5 39zM264 0h-113l500 725h113zM746 52q33 0 54 17.5t21 46.5q0 63 -95 63
h-24v64h20q90 0 90 59q0 26 -19 40t-46 14q-68 0 -78 -70h-77q5 62 48 95.5t112 33.5q57 0 99 -27.5t42 -81.5q0 -29 -16 -52.5t-41 -37.5q31 -14 48.5 -40.5t17.5 -58.5q0 -60 -45.5 -92t-112.5 -32t-109.5 37t-47.5 99h77q5 -34 26.5 -55.5t55.5 -21.5z" />
    <glyph glyph-name="uni2155" unicode="&#x2155;" horiz-adv-x="819" 
d="M182 317h-80v297h-90v56q48 1 71.5 12t37.5 43h61v-408zM149 0h-113l500 725h113zM633 52q33 0 54 21.5t21 58.5q0 40 -22 61.5t-54 21.5q-52 0 -71 -41l-73 4l28 230h256v-67h-190l-12 -90q29 23 82 23q57 0 97.5 -37.5t40.5 -103.5t-45 -103t-113 -37q-67 0 -108 37.5
t-46 97.5h76q4 -36 24 -56t55 -20z" />
    <glyph glyph-name="uni2156" unicode="&#x2156;" horiz-adv-x="933" 
d="M179 732q62 0 100.5 -29t38.5 -81q0 -59 -50.5 -116.5t-149.5 -121.5h206v-67h-303v65q133 105 169 144q46 51 46 91q0 27 -16.5 41.5t-43.5 14.5q-30 0 -50 -20t-19 -64h-79q-2 65 39.5 104t111.5 39zM264 0h-113l500 725h113zM748 52q33 0 54 21.5t21 58.5
q0 40 -22 61.5t-54 21.5q-52 0 -71 -41l-73 4l28 230h256v-67h-190l-12 -90q29 23 82 23q57 0 97.5 -37.5t40.5 -103.5t-45 -103t-113 -37q-67 0 -108 37.5t-46 97.5h76q4 -36 24 -56t55 -20z" />
    <glyph glyph-name="uni2157" unicode="&#x2157;" horiz-adv-x="949" 
d="M182 369q33 0 54 17.5t21 46.5q0 63 -95 63h-24v64h20q90 0 90 59q0 26 -19 40t-46 14q-68 0 -78 -70h-77q5 62 48 95.5t112 33.5q57 0 99 -27.5t42 -81.5q0 -29 -16 -52.5t-41 -37.5q31 -14 48.5 -40.5t17.5 -58.5q0 -60 -45.5 -92t-112.5 -32t-109.5 37t-47.5 99h77
q5 -34 26.5 -55.5t55.5 -21.5zM279 0h-113l500 725h113zM763 52q33 0 54 21.5t21 58.5q0 40 -22 61.5t-54 21.5q-52 0 -71 -41l-73 4l28 230h256v-67h-190l-12 -90q29 23 82 23q57 0 97.5 -37.5t40.5 -103.5t-45 -103t-113 -37q-67 0 -108 37.5t-46 97.5h76q4 -36 24 -56
t55 -20z" />
    <glyph glyph-name="uni2158" unicode="&#x2158;" horiz-adv-x="962" 
d="M217 622l-114 -145h114v145zM363 477v-67h-66v-93h-80v93h-201v62l203 253h78v-248h66zM292 0h-113l500 725h113zM776 52q33 0 54 21.5t21 58.5q0 40 -22 61.5t-54 21.5q-52 0 -71 -41l-73 4l28 230h256v-67h-190l-12 -90q29 23 82 23q57 0 97.5 -37.5t40.5 -103.5
t-45 -103t-113 -37q-67 0 -108 37.5t-46 97.5h76q4 -36 24 -56t55 -20z" />
    <glyph glyph-name="uni2159" unicode="&#x2159;" horiz-adv-x="817" 
d="M182 317h-80v297h-90v56q48 1 71.5 12t37.5 43h61v-408zM149 0h-113l500 725h113zM563 132q0 -38 20 -59t53 -21t53 21t20 59q0 36 -20 58t-53 22t-53 -21t-20 -59zM640 356q-37 0 -59 -32.5t-21 -89.5q31 38 91 38q59 0 99 -39t40 -101q0 -63 -43 -101t-111 -38
q-79 0 -118.5 54.5t-39.5 145.5q0 98 40.5 160t126.5 62q64 0 99 -33.5t39 -80.5h-80q-4 55 -63 55z" />
    <glyph glyph-name="uni215A" unicode="&#x215a;" horiz-adv-x="950" 
d="M184 369q33 0 54 21.5t21 58.5q0 40 -22 61.5t-54 21.5q-52 0 -71 -41l-73 4l28 230h256v-67h-190l-12 -90q29 23 82 23q57 0 97.5 -37.5t40.5 -103.5t-45 -103t-113 -37q-67 0 -108 37.5t-46 97.5h76q4 -36 24 -56t55 -20zM283 0h-113l500 725h113zM697 132
q0 -38 20 -59t53 -21t53 21t20 59q0 36 -20 58t-53 22t-53 -21t-20 -59zM774 356q-37 0 -59 -32.5t-21 -89.5q31 38 91 38q59 0 99 -39t40 -101q0 -63 -43 -101t-111 -38q-79 0 -118.5 54.5t-39.5 145.5q0 98 40.5 160t126.5 62q64 0 99 -33.5t39 -80.5h-80q-4 55 -63 55z
" />
    <glyph glyph-name="oneeighth" unicode="&#x215b;" horiz-adv-x="827" 
d="M182 317h-80v297h-90v56q48 1 71.5 12t37.5 43h61v-408zM149 0h-113l500 725h113zM638 415q66 0 106 -29t40 -77q0 -58 -49 -91q61 -35 61 -101q0 -59 -44.5 -91.5t-113.5 -32.5t-113 32.5t-44 91.5q0 67 61 101q-49 31 -49 91q0 47 39.5 76.5t105.5 29.5zM638 188
q-35 0 -55 -18t-20 -49t20 -50t55 -19t55.5 19t20.5 50t-20.5 49t-55.5 18zM705 300q0 26 -17.5 41t-49.5 15q-31 0 -49 -15t-18 -41t18 -42t49 -16q32 0 49.5 15.5t17.5 42.5z" />
    <glyph glyph-name="threeeighths" unicode="&#x215c;" horiz-adv-x="958" 
d="M182 369q33 0 54 17.5t21 46.5q0 63 -95 63h-24v64h20q90 0 90 59q0 26 -19 40t-46 14q-68 0 -78 -70h-77q5 62 48 95.5t112 33.5q57 0 99 -27.5t42 -81.5q0 -29 -16 -52.5t-41 -37.5q31 -14 48.5 -40.5t17.5 -58.5q0 -60 -45.5 -92t-112.5 -32t-109.5 37t-47.5 99h77
q5 -34 26.5 -55.5t55.5 -21.5zM279 0h-113l500 725h113zM768 415q66 0 106 -29t40 -77q0 -58 -49 -91q61 -35 61 -101q0 -59 -44.5 -91.5t-113.5 -32.5t-113 32.5t-44 91.5q0 67 61 101q-49 31 -49 91q0 47 39.5 76.5t105.5 29.5zM768 188q-35 0 -55 -18t-20 -49t20 -50
t55 -19t55.5 19t20.5 50t-20.5 49t-55.5 18zM835 300q0 26 -17.5 41t-49.5 15q-31 0 -49 -15t-18 -41t18 -42t49 -16q32 0 49.5 15.5t17.5 42.5z" />
    <glyph glyph-name="fiveeighths" unicode="&#x215d;" horiz-adv-x="960" 
d="M184 369q33 0 54 21.5t21 58.5q0 40 -22 61.5t-54 21.5q-52 0 -71 -41l-73 4l28 230h256v-67h-190l-12 -90q29 23 82 23q57 0 97.5 -37.5t40.5 -103.5t-45 -103t-113 -37q-67 0 -108 37.5t-46 97.5h76q4 -36 24 -56t55 -20zM283 0h-113l500 725h113zM772 415
q66 0 106 -29t40 -77q0 -58 -49 -91q61 -35 61 -101q0 -59 -44.5 -91.5t-113.5 -32.5t-113 32.5t-44 91.5q0 67 61 101q-49 31 -49 91q0 47 39.5 76.5t105.5 29.5zM772 188q-35 0 -55 -18t-20 -49t20 -50t55 -19t55.5 19t20.5 50t-20.5 49t-55.5 18zM839 300q0 26 -17.5 41
t-49.5 15q-31 0 -49 -15t-18 -41t18 -42t49 -16q32 0 49.5 15.5t17.5 42.5z" />
    <glyph glyph-name="seveneighths" unicode="&#x215e;" horiz-adv-x="904" 
d="M11 658v67h301v-67q-85 -81 -123 -156.5t-44 -184.5h-87q2 102 49 189t123 152h-219zM226 0h-113l500 725h113zM715 415q66 0 106 -29t40 -77q0 -58 -49 -91q61 -35 61 -101q0 -59 -44.5 -91.5t-113.5 -32.5t-113 32.5t-44 91.5q0 67 61 101q-49 31 -49 91
q0 47 39.5 76.5t105.5 29.5zM715 188q-35 0 -55 -18t-20 -49t20 -50t55 -19t55.5 19t20.5 50t-20.5 49t-55.5 18zM782 300q0 26 -17.5 41t-49.5 15q-31 0 -49 -15t-18 -41t18 -42t49 -16q32 0 49.5 15.5t17.5 42.5z" />
    <glyph glyph-name="uni215F" unicode="&#x215f;" horiz-adv-x="449" 
d="M182 317h-80v297h-90v56q48 1 71.5 12t37.5 43h61v-408zM149 0h-113l500 725h113z" />
    <glyph glyph-name="arrowleft" unicode="&#x2190;" horiz-adv-x="800" 
d="M14 269l310 311l63 -67l-199 -196h574v-97h-573l198 -197l-63 -65z" />
    <glyph glyph-name="arrowup" unicode="&#x2191;" horiz-adv-x="800" 
d="M400 743l311 -310l-65 -64l-198 199v-568h-97v568l-198 -199l-64 64z" />
    <glyph glyph-name="arrowright" unicode="&#x2192;" horiz-adv-x="800" 
d="M476 580l309 -311l-309 -311l-64 66l197 196h-572v97h574l-199 197z" />
    <glyph glyph-name="arrowdown" unicode="&#x2193;" horiz-adv-x="800" 
d="M711 292l-311 -311l-311 311l65 63l197 -198v568h97v-568l199 198z" />
    <glyph glyph-name="uni2196" unicode="&#x2196;" horiz-adv-x="800" 
d="M127 538h439v-90h-280l404 -406l-68 -67l-406 403v-279h-89v439z" />
    <glyph glyph-name="uni2197" unicode="&#x2197;" horiz-adv-x="800" 
d="M234 538h439v-439h-90v280l-405 -404l-68 67l404 406h-280v90z" />
    <glyph glyph-name="uni2198" unicode="&#x2198;" horiz-adv-x="800" 
d="M669 439v-439h-439v90h280l-404 405l67 68l406 -404v280h90z" />
    <glyph glyph-name="uni2199" unicode="&#x2199;" horiz-adv-x="800" 
d="M131 0v439h91v-279l405 403l67 -68l-404 -406h280v-89h-439z" />
    <glyph glyph-name="uni219E" unicode="&#x219e;" horiz-adv-x="800" 
d="M21 269l310 311l64 -67l-199 -196h144l262 263l64 -66l-199 -197h302v-97h-301l198 -196l-64 -66l-261 262h-144l198 -197l-64 -65z" />
    <glyph glyph-name="uni219F" unicode="&#x219f;" horiz-adv-x="800" 
d="M400 743l311 -310l-65 -64l-198 199v-142l263 -263l-64 -63l-199 199v-299h-97v298l-197 -198l-65 63l262 262v143l-198 -199l-64 64z" />
    <glyph glyph-name="uni21A0" unicode="&#x21a0;" horiz-adv-x="800" 
d="M475 580l309 -311l-309 -311l-64 66l197 196h-144l-261 -262l-64 65l198 197h-301v97h302l-199 196l64 67l263 -263h144l-199 197z" />
    <glyph glyph-name="uni21A1" unicode="&#x21a1;" horiz-adv-x="800" 
d="M711 292l-311 -311l-311 311l65 63l197 -198v142l-262 262l64 64l198 -199v299h97v-299l198 199l65 -64l-263 -262v-142l199 198z" />
    <glyph glyph-name="uni21A2" unicode="&#x21a2;" horiz-adv-x="800" 
d="M10 269l311 311l64 -66l-199 -197h272l262 263l63 -66l-246 -245l246 -245l-63 -66l-262 262h-272l199 -196l-64 -66z" />
    <glyph glyph-name="uni21A3" unicode="&#x21a3;" horiz-adv-x="800" 
d="M484 580l310 -311l-310 -311l-64 66l198 196h-272l-261 -262l-64 66l246 245l-246 245l64 66l262 -263h272l-199 197z" />
    <glyph glyph-name="uni21A4" unicode="&#x21a4;" horiz-adv-x="800" 
d="M759 538v-538h-99v220h-474l198 -197l-64 -65l-310 311l310 311l64 -67l-198 -196h474v221h99z" />
    <glyph glyph-name="uni21A5" unicode="&#x21a5;" horiz-adv-x="800" 
d="M400 743l311 -310l-67 -64l-196 199v-470h221v-98h-538v98h220v469l-196 -198l-66 64z" />
    <glyph glyph-name="uni21A6" unicode="&#x21a6;" horiz-adv-x="800" 
d="M41 0v533h100v-216h474l-199 197l64 66l310 -311l-310 -311l-64 66l198 196h-473v-220h-100z" />
    <glyph glyph-name="uni21A7" unicode="&#x21a7;" horiz-adv-x="800" 
d="M711 292l-311 -310l-311 310l66 64l196 -198v470h-220v97h538v-97h-221v-470l197 198z" />
    <glyph glyph-name="uni21B0" unicode="&#x21b0;" horiz-adv-x="800" 
d="M11 269l310 311l64 -67l-199 -196h563v-492h-97v395h-465l198 -197l-64 -65z" />
    <glyph glyph-name="uni21B1" unicode="&#x21b1;" horiz-adv-x="800" 
d="M479 580l310 -311l-310 -311l-64 65l198 197h-465v-395h-97v492h563l-199 196z" />
    <glyph glyph-name="uni21B2" unicode="&#x21b2;" horiz-adv-x="800" 
d="M11 269l310 311l64 -66l-199 -197h467v408h96v-505h-562l198 -196l-64 -66z" />
    <glyph glyph-name="uni21B3" unicode="&#x21b3;" horiz-adv-x="800" 
d="M479 580l310 -311l-310 -311l-64 66l198 196h-562v505h96v-408h467l-199 197z" />
    <glyph glyph-name="partialdiff" unicode="&#x2202;" horiz-adv-x="583" 
d="M431 253q0 87 -41 132t-106 45q-67 0 -104 -47t-37 -130q0 -85 36.5 -131.5t104.5 -46.5q65 0 106 45.5t41 132.5zM284 -13q-115 0 -182.5 72t-67.5 195q0 121 66.5 192.5t168.5 71.5q101 0 156 -75l1 1q-23 88 -97.5 145t-174.5 61v89q174 -6 281.5 -125.5t107.5 -294.5
q0 -161 -67.5 -246.5t-191.5 -85.5z" />
    <glyph glyph-name="product" unicode="&#x220f;" horiz-adv-x="677" 
d="M170 -175h-100v900h537v-900h-101v804h-336v-804z" />
    <glyph glyph-name="summation" unicode="&#x2211;" horiz-adv-x="591" 
d="M29 -89l271 363l-270 365v86h532v-96h-406l266 -355l-267 -353h407v-96h-533v86z" />
    <glyph glyph-name="minus" unicode="&#x2212;" 
d="M69 316h541v-96h-541v96z" />
    <glyph glyph-name="radical" unicode="&#x221a;" horiz-adv-x="528" 
d="M0 206l157 75l135 -308l133 752h103l-168 -900h-100l-152 325l-66 -32z" />
    <glyph glyph-name="infinity" unicode="&#x221e;" horiz-adv-x="784" 
d="M572 420q78 0 128.5 -47t50.5 -119q0 -74 -49 -120.5t-128 -46.5q-95 0 -181 98q-90 -97 -184 -97q-79 0 -128 46.5t-49 119.5t50.5 119.5t131.5 46.5q94 0 179 -92q40 47 82 69.5t97 22.5zM212 180q34 0 61 17.5t61 57.5q-62 73 -119 73q-37 0 -61 -20.5t-24 -53.5
q0 -30 23.5 -52t58.5 -22zM567 328q-55 0 -115 -73q61 -75 120 -75q35 0 58 21t23 53q0 31 -24 52.5t-62 21.5z" />
    <glyph glyph-name="integral" unicode="&#x222b;" horiz-adv-x="329" 
d="M112 169v288q0 154 41.5 217t115.5 63q39 0 66 -18.5t27 -53.5q0 -24 -14.5 -39.5t-38.5 -15.5q-22 0 -36.5 14t-14.5 37q0 16 3 25q-20 -1 -31.5 -19.5t-14.5 -42.5t-3 -62q0 -15 2.5 -74.5t2.5 -115.5v-284q0 -149 -40 -209.5t-115 -60.5q-40 0 -67 17.5t-27 53.5
q0 24 14.5 39.5t38.5 15.5q22 0 36.5 -14t14.5 -37q0 -17 -4 -26q16 1 26 10.5t14 29t5.5 37.5t1.5 48q0 13 -1.5 72.5t-1.5 104.5z" />
    <glyph glyph-name="approxequal" unicode="&#x2248;" 
d="M448 387q29 0 47 17.5t20 51.5h91q-4 -73 -44.5 -116.5t-111.5 -43.5q-42 0 -115 34t-105 34q-29 0 -47 -17t-20 -51h-91q4 73 44.5 116.5t111.5 43.5q51 0 122.5 -34.5t97.5 -34.5zM448 194q29 0 47 17.5t20 51.5h91q-4 -73 -44.5 -116.5t-111.5 -43.5q-42 0 -115 34.5
t-105 34.5q-29 0 -47 -17.5t-20 -51.5h-91q4 73 44.5 116.5t111.5 43.5q51 0 122.5 -34.5t97.5 -34.5z" />
    <glyph glyph-name="notequal" unicode="&#x2260;" 
d="M205 121h-117v96h168l57 108h-225v97h277l76 144l83 -42l-55 -102h122v-97h-174l-57 -108h231v-96h-283l-84 -159l-82 40z" />
    <glyph glyph-name="lessequal" unicode="&#x2264;" 
d="M216 329l382 -109v-104l-519 169v88l519 173v-106zM77 0v96h525v-96h-525z" />
    <glyph glyph-name="greaterequal" unicode="&#x2265;" 
d="M463 329l-383 111v106l520 -173v-88l-520 -169v104zM602 0h-525v96h525v-96z" />
    <glyph glyph-name="filledbox" unicode="&#x25a0;" horiz-adv-x="624" 
d="M43 0v538h538v-538h-538z" />
    <glyph glyph-name="H22073" unicode="&#x25a1;" horiz-adv-x="624" 
d="M43 0v538h538v-538h-538zM140 441v-344h344v344h-344z" />
    <glyph glyph-name="lozenge" unicode="&#x25ca;" horiz-adv-x="528" 
d="M268 586l-146 -246l146 -247l146 247zM8 340l259 425l253 -425l-253 -427z" />
    <glyph glyph-name="circle" unicode="&#x25cb;" horiz-adv-x="602" 
d="M301 455q-81 0 -133 -54t-52 -133q0 -78 52 -132t133 -54t133 54t52 132q0 79 -52 133t-133 54zM301 550q121 0 202 -82t81 -200q0 -117 -81 -199t-202 -82t-202 82t-81 199q0 118 81 200t202 82z" />
    <glyph glyph-name="H18533" unicode="&#x25cf;" horiz-adv-x="602" 
d="M301 -13q-121 0 -202 82t-81 199q0 118 81 200t202 82t202 -82t81 -200q0 -117 -81 -199t-202 -82z" />
    <glyph glyph-name="uniF6D1" unicode="&#xf6d1;" horiz-adv-x="472" 
d="M334 886h83q-6 -56 -51.5 -88.5t-128.5 -32.5q-81 0 -126 32t-52 89h83q7 -58 96 -58q85 0 96 58z" />
    <glyph glyph-name="uniF6D4" unicode="&#xf6d4;" horiz-adv-x="412" 
d="M205 604q-77 0 -116.5 34t-43.5 87h79q7 -58 82 -58q77 0 84 58h78q-15 -121 -163 -121z" />
    <glyph glyph-name="fi" unicode="&#xfb01;" horiz-adv-x="561" 
d="M388 538h104v-538h-104v538zM89 538v36q0 89 33.5 120t127.5 31h47v-83h-40q-40 0 -52 -12.5t-12 -54.5v-37h104v-79h-104v-459h-104v459h-75v79h75zM388 725h104v-115h-104v115z" />
    <glyph glyph-name="fl" unicode="&#xfb02;" horiz-adv-x="561" 
d="M89 538v36q0 89 33.5 120t127.5 31h47v-83h-40q-40 0 -52 -12.5t-12 -54.5v-37h104v-79h-104v-459h-104v459h-75v79h75zM492 725v-725h-104v725h104z" />
    <glyph glyph-name="NULL" horiz-adv-x="0" 
 />
    <glyph glyph-name="CR" horiz-adv-x="234" 
 />
    <glyph glyph-name="uni0414.locl" horiz-adv-x="748" 
d="M734 96v-247h-97v151h-526v-151h-97v247h73l227 629h118l230 -629h72zM549 96l-177 504l-172 -504h349z" />
    <glyph glyph-name="uni041B.locl" horiz-adv-x="663" 
d="M124 0h-119l266 725h119l268 -725h-121l-208 595z" />
    <glyph glyph-name="uni0432.locl" horiz-adv-x="562" 
d="M400 413q127 -47 127 -204q0 -108 -63 -164.5t-179 -56.5q-210 0 -210 197v345q0 106 55 154t150 48q87 0 143 -46t56 -131q0 -93 -79 -142zM278 647q-47 0 -73 -28.5t-26 -77.5v-99h91q100 0 100 108q0 49 -21.5 73t-70.5 24zM294 73q125 0 125 141q0 69 -31 107t-87 38
h-122v-176q0 -110 115 -110z" />
    <glyph glyph-name="uni0433.locl" horiz-adv-x="511" 
d="M140 389h-100q14 79 72.5 119.5t148.5 40.5t143.5 -40.5t53.5 -110.5q0 -67 -35.5 -102t-119.5 -56l-55 -14q-61 -16 -83 -34t-22 -50q0 -71 117 -71q97 0 122 95h102q-29 -179 -228 -179q-99 0 -159 39t-60 117q0 69 42.5 103.5t139.5 60.5l61 17q47 13 61 30t14 47
q0 29 -23 46.5t-69 17.5q-103 0 -123 -76z" />
    <glyph glyph-name="uni0434.locl" horiz-adv-x="601" 
d="M428 459v79h104v-475q0 -131 -58 -189q-62 -65 -188 -65q-94 0 -153.5 41.5t-71.5 123.5h107q9 -39 36 -58.5t84 -19.5q74 0 108 39q32 35 32 106v57q-52 -89 -166 -89q-98 0 -163.5 72.5t-65.5 197.5q0 124 65.5 196.5t163.5 72.5q114 0 166 -89zM432 279q0 91 -41 137
t-105 46q-66 0 -104 -48.5t-38 -134.5q0 -87 38 -136t104 -49q64 0 105 47t41 138z" />
    <glyph glyph-name="uni0436.locl" horiz-adv-x="821" 
d="M136 0h-125l198 282l-181 256h120l146 -218h65v405h104v-405h65l147 218h120l-181 -254l197 -284h-125l-160 237h-63v-237h-104v237h-63z" />
    <glyph glyph-name="uni0437.locl" horiz-adv-x="497" 
d="M343 208q56 -18 88.5 -63t32.5 -113q0 -100 -64 -154.5t-153 -54.5q-92 0 -151.5 45t-73.5 137h101q16 -97 124 -97q50 0 82.5 32.5t32.5 91.5q0 58 -32.5 93t-89.5 35h-76v83h65q47 0 80.5 31.5t33.5 83.5t-24.5 80t-71.5 28q-43 0 -73 -27.5t-41 -75.5h-100
q14 90 73.5 139t143.5 49q90 0 140.5 -47t51.5 -137q0 -54 -26.5 -95.5t-72.5 -63.5z" />
    <glyph glyph-name="uni0438.locl" horiz-adv-x="576" 
d="M402 0v76q-50 -89 -164 -89q-176 0 -176 209v342h104v-314q0 -33 3.5 -56.5t14.5 -46t33 -34.5t56 -12q65 0 97.5 44.5t32.5 126.5v292h104v-538h-105z" />
    <glyph glyph-name="_475" horiz-adv-x="576" 
d="M281 604q-77 0 -116.5 34t-43.5 87h79q7 -58 82 -58q77 0 84 58h78q-15 -121 -163 -121zM402 0v76q-50 -89 -164 -89q-176 0 -176 209v342h104v-314q0 -33 3.5 -56.5t14.5 -46t33 -34.5t56 -12q65 0 97.5 44.5t32.5 126.5v292h104v-538h-105z" />
    <glyph glyph-name="uni043A.locl" horiz-adv-x="558" 
d="M423 0l-181 237h-63v-237h-104v725h104v-405h66l164 218h121l-203 -257l221 -281h-125z" />
    <glyph glyph-name="uni043B.locl" horiz-adv-x="514" 
d="M395 0l-141 412l-141 -412h-108l198 538h105l202 -538h-115z" />
    <glyph glyph-name="_478" horiz-adv-x="583" 
d="M174 538v-78q51 88 169 88q180 0 180 -209v-339h-104v311q0 33 -3.5 56.5t-14.5 46.5t-34 35t-59 12q-67 0 -100.5 -44.5t-33.5 -127.5v-289h-104v538h104z" />
    <glyph glyph-name="_479" horiz-adv-x="903" 
d="M174 289v-289h-104v538h104v-78q51 88 159 88q118 0 156 -95q63 95 178 95q175 0 175 -209v-339h-104v311q0 70 -21.5 110t-84.5 40q-61 0 -92.5 -45t-31.5 -127v-289h-104v311q0 70 -21.5 110t-84.5 40q-124 0 -124 -172z" />
    <glyph glyph-name="_480" horiz-adv-x="623" 
d="M608 -128h-98v128q-84 0 -100 78q-51 -91 -165 -91q-176 0 -176 209v342h104v-314q0 -26 2 -45.5t8.5 -40t18 -33.5t31 -21.5t47.5 -8.5q129 0 129 171v292h104v-392q0 -38 15.5 -53t57.5 -15h22v-206z" />
    <glyph glyph-name="_481" horiz-adv-x="916" 
d="M737 249v289h104v-538h-104v78q-51 -88 -159 -88q-118 0 -156 95q-63 -95 -178 -95q-175 0 -175 209v339h104v-311q0 -70 21.5 -110t84.5 -40q61 0 92.5 45t31.5 127v289h104v-311q0 -70 21.5 -110t84.5 -40q124 0 124 172z" />
    <glyph glyph-name="_482" horiz-adv-x="951" 
d="M936 -128h-98v128q-85 0 -99 80q-51 -90 -161 -90q-116 0 -156 95q-61 -95 -178 -95q-175 0 -175 209v339h104v-311q0 -70 21.5 -110t84.5 -40q124 0 124 172v289h104v-311q0 -70 21.5 -110t84.5 -40q124 0 124 172v289h104v-399q0 -33 16.5 -47t54.5 -15h24v-205z" />
    <glyph glyph-name="uni044E.locl" horiz-adv-x="811" 
d="M525 548q65 0 120.5 -28.5t93.5 -94t38 -158.5q0 -136 -75 -208t-177 -72q-93 0 -164.5 63.5t-80.5 183.5h-101v-234h-104v728h104v-411h103q13 112 84 171.5t159 59.5zM525 75q60 0 101 49.5t41 142.5q0 94 -41 143.5t-101 49.5q-57 0 -96.5 -48.5t-39.5 -144.5
q0 -93 40 -142.5t96 -49.5z" />
    <glyph glyph-name="_484" horiz-adv-x="524" 
d="M173 352h115q107 0 156.5 -44t49.5 -134q0 -186 -216 -186q-209 0 -209 193v357h104v-186zM285 74q101 0 101 97q0 56 -25 77t-84 21h-104v-88q0 -60 24.5 -83.5t87.5 -23.5z" />
    <glyph glyph-name="_485" horiz-adv-x="589" 
d="M353 -12q-194 0 -194 179v288h-144v83h248v-186h80q112 0 164 -44t52 -134q0 -96 -51 -141t-155 -45zM360 74q52 0 74 24t22 73q0 56 -29.5 77t-94.5 21h-69v-88q0 -59 22.5 -83t74.5 -24z" />
    <glyph glyph-name="uni0431.locl" horiz-adv-x="576" 
d="M45 252q0 161 112 222q-86 37 -86 124q0 58 42.5 92.5t126.5 34.5h109q98 0 143 9v-88q-32 -8 -141 -8h-99q-43 0 -64 -11.5t-21 -41.5q0 -29 25.5 -53.5t87.5 -24.5h10q110 0 181 -64.5t71 -190.5q0 -127 -71 -196t-181 -69q-107 0 -176 68.5t-69 196.5zM155 247
q0 -80 37.5 -126t97.5 -46q65 0 103.5 45.5t38.5 131.5q0 79 -40 123.5t-102 44.5q-58 0 -96.5 -45t-38.5 -128z" />
    <glyph glyph-name="_515" horiz-adv-x="447" 
d="M43 279q0 73 52 125t124 52q78 0 131 -51.5t53 -125.5q0 -78 -52.5 -130.5t-131.5 -52.5q-73 0 -124.5 53t-51.5 130z" />
    <glyph glyph-name="_533" horiz-adv-x="244" 
d="M70 725h104v-115h-104v115z" />
    <glyph glyph-name="_538" horiz-adv-x="142" 
d="M22 -71h98v-104h-98v104z" />
    <glyph glyph-name="_544" horiz-adv-x="181" 
d="M159 725l-70 -170h-67l30 170h107z" />
    <glyph glyph-name="zero.zero" horiz-adv-x="659" 
d="M329 -13q-141 0 -213 100.5t-72 275.5t72 275t213 100q142 0 213.5 -100t71.5 -275q0 -176 -71.5 -276t-213.5 -100zM154 363v-29l341 139q-32 182 -166 182q-83 0 -129 -74.5t-46 -217.5zM329 71q84 0 129.5 74t45.5 218q0 17 -1 25l-340 -138q34 -179 166 -179z" />
    <glyph glyph-name="one.onum" horiz-adv-x="340" 
d="M260 0h-105v491h-155v75q81 2 120 18.5t64 68.5h76v-653z" />
    <glyph glyph-name="two.onum" horiz-adv-x="553" 
d="M286 664q98 0 160.5 -47.5t62.5 -129.5q0 -41 -19.5 -83t-45.5 -75.5t-77 -79t-89.5 -75t-108.5 -80.5h356v-94h-498v90q103 75 158.5 118t111.5 94.5t79 92.5t23 82q0 48 -31 74t-86 26q-57 0 -96 -33t-39 -105h-105q-2 101 65.5 163t178.5 62z" />
    <glyph glyph-name="three.onum" horiz-adv-x="566" 
d="M271 76q65 0 104 28t39 79q0 112 -186 112h-21v90h18q172 0 172 100q0 44 -35 67.5t-88 23.5q-125 0 -143 -106h-103q10 88 76.5 141t173.5 53q96 0 162 -42t66 -128q0 -50 -28 -88.5t-77 -59.5q63 -20 92.5 -63.5t29.5 -97.5q0 -94 -73.5 -145.5t-179.5 -51.5
q-111 0 -176.5 58t-74.5 144h104q9 -51 46.5 -82.5t101.5 -31.5z" />
    <glyph glyph-name="four.onum" horiz-adv-x="577" 
d="M344 511l-222 -260h222v260zM570 251v-96h-121v-155h-105v155h-338v92l340 405h103v-401h121z" />
    <glyph glyph-name="five.onum" horiz-adv-x="573" 
d="M284 76q62 0 102 36t40 102q0 68 -42.5 103t-101.5 35q-45 0 -79.5 -18.5t-46.5 -44.5l-100 6l45 357h407v-95h-322l-21 -159q51 42 144 42q94 0 160 -60t66 -166t-72.5 -166t-179.5 -60q-110 0 -173.5 58t-74.5 142h104q10 -51 45.5 -81.5t99.5 -30.5z" />
    <glyph glyph-name="six.onum" horiz-adv-x="588" 
d="M160 210q0 -62 37.5 -98t100.5 -36q62 0 100.5 36.5t38.5 97.5q0 60 -38 98t-100 38t-100.5 -37.5t-38.5 -98.5zM306 576q-72 0 -112 -57t-42 -160q55 76 169 76q97 0 161 -62t64 -161q0 -97 -68.5 -160.5t-178.5 -63.5q-128 0 -191.5 84.5t-63.5 233.5q0 73 15 135
t46 113t85 80.5t126 29.5q98 0 153.5 -51t64.5 -123h-108q-7 41 -38.5 63.5t-81.5 22.5z" />
    <glyph glyph-name="seven.onum" horiz-adv-x="469" 
d="M4 557v95h485v-93q-135 -119 -204.5 -250t-81.5 -309h-120q18 320 290 557h-369z" />
    <glyph glyph-name="eight.onum" horiz-adv-x="597" 
d="M298 664q105 0 169 -48t64 -121q0 -99 -90 -147q111 -52 111 -163q0 -92 -71.5 -144.5t-182.5 -52.5t-182.5 52.5t-71.5 144.5q0 111 110 163q-89 47 -89 147q0 73 64 121t169 48zM298 302q-66 0 -105 -31t-39 -83q0 -51 39 -81.5t105 -30.5t105.5 30.5t39.5 81.5
q0 52 -39.5 83t-105.5 31zM427 483q0 44 -34.5 68.5t-94.5 24.5q-59 0 -94 -24.5t-35 -68.5q0 -43 36 -71t93 -28q58 0 93.5 28t35.5 71z" />
    <glyph glyph-name="nine.onum" horiz-adv-x="583" 
d="M424 441q0 62 -37.5 98.5t-100.5 36.5t-101 -36.5t-38 -98.5q0 -60 38 -97.5t100 -37.5t100.5 37.5t38.5 97.5zM276 75q73 0 114 57.5t43 159.5q-54 -75 -169 -75q-97 0 -161.5 61t-64.5 161q0 97 68 161t177 64q130 0 193 -84t63 -234q0 -74 -14.5 -136t-45 -113
t-84 -80t-125.5 -29q-97 0 -154 51.5t-66 122.5h108q7 -42 38 -64.5t80 -22.5z" />
    <glyph glyph-name="zero.onum" horiz-adv-x="625" 
d="M312 -12q-134 0 -202 91t-68 249t68 247t202 89t203 -89t69 -247t-69 -249t-203 -91zM312 76q77 0 119.5 63t42.5 189q0 124 -42 186t-120 62q-77 0 -119 -62t-42 -186q0 -126 42 -189t119 -63z" />
    <glyph glyph-name="zero.onum_zero" horiz-adv-x="625" 
d="M312 -12q-134 0 -202 91t-68 249t68 247t202 89t203 -89t69 -247t-69 -249t-203 -91zM312 76q77 0 119.5 63t42.5 189q0 14 -1 21l-312 -127q31 -146 151 -146zM151 328v-21l313 127q-34 142 -152 142q-77 0 -119 -62t-42 -186z" />
    <glyph glyph-name="one.tnum" 
d="M399 92h170v-92h-461v92h187v457h-186v72q91 3 140.5 21t75.5 73h74v-623z" />
    <glyph glyph-name="two.tnum" 
d="M349 738q103 0 168 -50.5t65 -140.5q0 -58 -27 -116t-80.5 -115.5t-115.5 -109t-148 -112.5h390v-94h-525v90q104 79 169 133.5t121 112t81.5 106t25.5 94.5q0 55 -34 87t-93 32q-62 0 -104 -38.5t-42 -120.5h-106q-2 109 68.5 175.5t186.5 66.5z" />
    <glyph glyph-name="three.tnum" 
d="M339 71q70 0 113 35t43 97q0 132 -196 132h-25v91h21q181 0 181 116q0 55 -38 84t-96 29q-67 0 -105.5 -37.5t-47.5 -102.5h-104q8 102 77.5 162.5t184.5 60.5q102 0 170 -46t68 -141q0 -55 -29.5 -99t-83.5 -67q69 -23 100.5 -71t31.5 -109q0 -105 -77 -161.5
t-190 -56.5q-120 0 -188 66.5t-74 165.5h104q9 -67 49 -107.5t111 -40.5z" />
    <glyph glyph-name="four.tnum" 
d="M401 586l-244 -317h244v317zM636 269v-94h-130v-175h-105v175h-359v92l359 458h105v-456h130z" />
    <glyph glyph-name="five.tnum" 
d="M338 71q65 0 109 44.5t44 120.5q0 80 -46 122.5t-109 42.5q-50 0 -86.5 -23t-49.5 -55l-101 6l48 396h424v-95h-339l-24 -194q56 50 153 50q100 0 169.5 -66t69.5 -183q0 -118 -76.5 -184t-186.5 -66q-118 0 -185 65.5t-76 163.5h104q20 -145 158 -145z" />
    <glyph glyph-name="six.tnum" 
d="M192 232q0 -74 41.5 -117.5t108.5 -43.5t109 44.5t42 116.5q0 73 -42 118.5t-108 45.5q-67 0 -109 -45.5t-42 -118.5zM351 655q-78 0 -122.5 -72t-46.5 -193q59 93 183 93q102 0 169.5 -68.5t67.5 -178.5q0 -107 -72 -178t-187 -71q-135 0 -201.5 92t-66.5 260
q0 82 15.5 151t48 126t89.5 89.5t133 32.5q102 0 159.5 -54.5t68.5 -133.5h-109q-8 50 -42.5 77.5t-86.5 27.5z" />
    <glyph glyph-name="seven.tnum" 
d="M83 630v95h511v-95q-280 -246 -303 -630h-122q9 187 91.5 348.5t218.5 281.5h-396z" />
    <glyph glyph-name="eight.tnum" 
d="M338 738q111 0 178 -52t67 -133q0 -50 -24 -94.5t-72 -72.5q118 -52 118 -181q0 -102 -75 -160t-192 -58t-192 58t-75 160q0 128 119 181q-48 28 -72 73t-24 94q0 81 66.5 133t177.5 52zM338 345q-72 0 -114.5 -37.5t-42.5 -100.5t42.5 -99.5t114.5 -36.5t115 36.5
t43 99.5t-43 100.5t-115 37.5zM479 540q0 53 -38.5 84t-102.5 31t-102.5 -31t-38.5 -84q0 -54 39 -88t102 -34t102 34t39 88z" />
    <glyph glyph-name="nine.tnum" 
d="M484 493q0 74 -41 118t-108 44t-109 -44t-42 -118q0 -73 42 -118.5t108 -45.5t108 45.5t42 118.5zM326 71q78 0 121.5 71t47.5 193q-59 -93 -183 -93q-102 0 -169.5 69t-67.5 179q0 107 72 177.5t187 70.5q135 0 201.5 -92t66.5 -260q0 -82 -15.5 -151t-48 -126
t-89.5 -89.5t-133 -32.5q-102 0 -160.5 55t-67.5 133h109q8 -51 41.5 -77.5t87.5 -26.5z" />
    <glyph glyph-name="zero.tnum" 
d="M338 71q84 0 129.5 74t45.5 218q0 143 -45.5 217.5t-129.5 74.5q-83 0 -129 -74.5t-46 -217.5q0 -144 46 -218t129 -74zM338 -13q-141 0 -213 100.5t-72 275.5t72 275t213 100q142 0 213.5 -100t71.5 -275q0 -176 -71.5 -276t-213.5 -100z" />
    <glyph glyph-name="zero.tnum_zero" 
d="M338 -13q-141 0 -212.5 100t-71.5 276q0 175 71.5 275t212.5 100q142 0 214 -100t72 -275q0 -176 -72 -276t-214 -100zM164 363v-29l341 139q-35 182 -167 182q-83 0 -128.5 -74.5t-45.5 -217.5zM338 71q84 0 130 74t46 218q0 5 -0.5 13t-0.5 12l-340 -138
q16 -89 58 -134t107 -45z" />
    <glyph glyph-name="one.case" horiz-adv-x="370" 
d="M283 0h-114v550h-163v80q85 2 127 20.5t68 74.5h82v-725z" />
    <glyph glyph-name="two.case" horiz-adv-x="586" 
d="M302 738q105 0 170.5 -52t65.5 -145q0 -45 -20 -91.5t-49 -86t-81 -89t-95.5 -86t-113.5 -90.5h376v-98h-528v97q104 80 166 131.5t119 108.5t82 103t25 90q0 52 -33 82.5t-89 30.5q-57 0 -98.5 -38.5t-41.5 -116.5h-115q-2 111 69.5 180.5t190.5 69.5z" />
    <glyph glyph-name="three.case" horiz-adv-x="602" 
d="M291 83q66 0 108.5 32.5t42.5 88.5q0 65 -54 96t-142 31h-23v98h19q181 0 181 112q0 49 -37 75.5t-92 26.5q-64 0 -104.5 -35t-47.5 -90h-113q12 101 83.5 160.5t186.5 59.5q48 0 90.5 -11t77.5 -32.5t55 -59t20 -86.5q0 -53 -29 -96t-81 -66q128 -48 128 -180
q0 -105 -78 -162.5t-193 -57.5q-118 0 -187.5 66t-78.5 166h112q9 -59 49 -97.5t107 -38.5z" />
    <glyph glyph-name="four.case" horiz-adv-x="628" 
d="M371 572l-233 -291h233v291zM613 281v-100h-127v-181h-115v181h-358v95l360 449h113v-444h127z" />
    <glyph glyph-name="five.case" horiz-adv-x="612" 
d="M303 83q64 0 105.5 41t41.5 114q0 75 -44 115.5t-105 40.5q-49 0 -84.5 -21t-48.5 -50l-108 6l48 396h432v-98h-339l-23 -184q56 46 151 46q100 0 170.5 -67t70.5 -183q0 -117 -78 -184.5t-190 -67.5q-119 0 -186 66t-78 165h111q11 -61 49 -98t105 -37z" />
    <glyph glyph-name="six.case" horiz-adv-x="623" 
d="M171 232q0 -67 39.5 -108t104.5 -41q64 0 104.5 41.5t40.5 107.5q0 68 -40 110t-104 42q-65 0 -105 -42t-40 -110zM324 643q-76 0 -119 -65.5t-45 -179.5q58 83 179 83q102 0 170.5 -68.5t68.5 -177.5q0 -107 -73 -177.5t-189 -70.5q-135 0 -203.5 94.5t-68.5 259.5
q0 80 16 149t49 126t90.5 89.5t133.5 32.5q105 0 164 -56.5t68 -135.5h-116q-8 47 -41 72t-84 25z" />
    <glyph glyph-name="seven.case" horiz-adv-x="511" 
d="M4 627v98h517v-98q-144 -126 -217.5 -277t-85.5 -350h-129q9 187 91.5 347.5t220.5 279.5h-397z" />
    <glyph glyph-name="eight.case" horiz-adv-x="633" 
d="M316 738q112 0 180 -53t68 -133q0 -110 -93 -164q115 -56 115 -181q0 -101 -76.5 -160.5t-193.5 -59.5q-118 0 -193.5 59.5t-75.5 160.5q0 124 116 181q-46 26 -69.5 70.5t-23.5 92.5q0 81 67 134t179 53zM316 338q-68 0 -109 -35.5t-41 -92.5t40.5 -92t109.5 -35
t110.5 35t41.5 92t-41.5 92.5t-110.5 35.5zM451 539q0 47 -36.5 75.5t-98.5 28.5q-61 0 -97.5 -28.5t-36.5 -75.5q0 -49 37 -80.5t97 -31.5q61 0 98 31.5t37 80.5z" />
    <glyph glyph-name="nine.case" horiz-adv-x="617" 
d="M447 493q0 68 -39.5 109t-105.5 41q-65 0 -105 -41t-40 -109q0 -67 40 -109.5t104 -42.5t105 42.5t41 109.5zM294 83q74 0 117.5 65.5t45.5 177.5q-57 -81 -177 -81q-104 0 -173 68t-69 177q0 107 72 177.5t189 70.5q138 0 205.5 -93.5t67.5 -257.5q0 -81 -15.5 -150
t-48 -126.5t-89.5 -90.5t-134 -33q-104 0 -164 57t-69 134h116q8 -45 41.5 -70t84.5 -25z" />
    <glyph glyph-name="zero.case" horiz-adv-x="665" 
d="M332 -13q-140 0 -214 102.5t-74 275.5t73.5 273t214.5 100q142 0 215 -100t73 -273q0 -174 -73 -276t-215 -102zM332 83q80 0 125 72.5t45 209.5t-44.5 207.5t-125.5 70.5q-80 0 -124 -70t-44 -208q0 -137 44.5 -209.5t123.5 -72.5z" />
    <glyph glyph-name="zero.case_zero" horiz-adv-x="665" 
d="M332 -13q-140 0 -214 102.5t-74 275.5t73.5 273t214.5 100q142 0 215 -100t73 -273q0 -174 -73 -276t-215 -102zM164 365v-28l329 133q-31 173 -161 173q-80 0 -124 -70t-44 -208zM332 83q80 0 125 72.5t45 209.5v21l-329 -134q35 -169 159 -169z" />
    <glyph glyph-name="a.sups" horiz-adv-x="348" 
d="M136 431q-48 0 -78 24t-30 64q0 53 53 77t148 31v11q0 56 -59 56q-54 0 -58 -49h-75q3 46 40.5 76t98.5 30q132 0 132 -130q0 -5 -0.5 -35.5t-0.5 -44.5q0 -68 6 -103h-75q0 6 -0.5 19t-0.5 21q-27 -47 -101 -47zM230 564v11q-67 -7 -93.5 -17.5t-26.5 -34.5
q0 -17 12.5 -26t32.5 -9q75 0 75 76z" />
    <glyph glyph-name="b.sups" horiz-adv-x="374" 
d="M126 846v-144q28 46 89 46q58 0 95 -43.5t37 -114.5q0 -72 -37 -115.5t-95 -43.5q-61 0 -89 46v-39h-79v408h79zM195 493q31 0 50 26t19 71q0 44 -19 69.5t-50 25.5q-33 0 -52.5 -24t-19.5 -71t19.5 -72t52.5 -25z" />
    <glyph glyph-name="c.sups" horiz-adv-x="344" 
d="M177 748q52 0 91 -28.5t50 -84.5h-75q-11 50 -64 50q-31 0 -51 -24t-20 -72t19.5 -71.5t51.5 -23.5q54 0 66 51h76q-13 -58 -53 -86t-92 -28q-69 0 -109 44t-40 114t41 114.5t109 44.5z" />
    <glyph glyph-name="d.sups" horiz-adv-x="374" 
d="M328 438h-80v39q-28 -46 -89 -46q-57 0 -94 43.5t-37 115.5q0 71 36.5 114.5t94.5 43.5q61 0 89 -46v144h80v-408zM179 493q32 0 52 25t20 72q0 46 -20 70.5t-52 24.5q-31 0 -50 -25.5t-19 -69.5q0 -45 19 -71t50 -26z" />
    <glyph glyph-name="e.sups" horiz-adv-x="355" 
d="M184 431q-73 0 -115 45.5t-42 115.5q0 69 42.5 112.5t110.5 43.5q71 0 111.5 -49.5t36.5 -130.5h-221q2 -33 23 -53.5t51 -20.5q49 0 68 36h76q-15 -44 -51 -71.5t-90 -27.5zM179 689q-27 0 -48 -17.5t-24 -50.5h141q-2 34 -21.5 51t-47.5 17z" />
    <glyph glyph-name="f.sups" horiz-adv-x="212" 
d="M56 741v17q0 53 24.5 70.5t85.5 17.5h32v-58h-19q-27 0 -35 -6t-8 -27v-14h62v-56h-62v-247h-80v247h-42v56h42z" />
    <glyph glyph-name="g.sups" horiz-adv-x="372" 
d="M248 741h80v-271q0 -74 -40 -108q-39 -33 -110 -33q-56 0 -93 24.5t-45 72.5h76q11 -38 63 -38q38 0 56 21q13 14 13 45v38q-27 -46 -89 -46q-58 0 -95 41t-37 110t37 110t95 41q64 0 89 -46v39zM251 597q0 44 -19.5 66.5t-52.5 22.5q-31 0 -50 -24t-19 -65t19 -65
t50 -24q33 0 52.5 22.5t19.5 66.5z" />
    <glyph glyph-name="h.sups" horiz-adv-x="362" 
d="M126 846v-146q25 48 90 48q104 0 104 -122v-188h-79v169q0 37 -10 57t-42 20q-63 0 -63 -88v-158h-79v408h79z" />
    <glyph glyph-name="i.sups" horiz-adv-x="172" 
d="M47 741h79v-303h-79v303zM47 846h79v-71h-79v71z" />
    <glyph glyph-name="j.sups" horiz-adv-x="173" 
d="M46 437v304h80v-303q0 -59 -20.5 -79t-76.5 -20h-24v60h11q20 0 25 7t5 31zM46 846h80v-71h-80v71z" />
    <glyph glyph-name="k.sups" horiz-adv-x="343" 
d="M47 846h79v-222l107 117h94l-109 -116l117 -187h-93l-78 129l-38 -40v-89h-79v408z" />
    <glyph glyph-name="l.sups" horiz-adv-x="172" 
d="M126 846v-408h-79v408h79z" />
    <glyph glyph-name="m.sups" horiz-adv-x="544" 
d="M47 438v303h78v-35q29 42 87 42q61 0 88 -48q36 48 101 48q57 0 81 -35q21 -26 21 -86v-189h-79v171q0 42 -10 57q-12 17 -40 17q-34 0 -46.5 -22t-12.5 -64v-159h-80v171q0 44 -11 57q-11 17 -39 17q-33 0 -46 -22t-13 -64v-159h-79z" />
    <glyph glyph-name="o.sups" horiz-adv-x="359" 
d="M109 589q0 -47 19 -71.5t52 -24.5t52.5 24.5t19.5 71.5q0 97 -72 97q-32 0 -51.5 -25t-19.5 -72zM180 431q-65 0 -108.5 40.5t-43.5 117.5t43.5 118t108.5 41t109 -41t44 -118t-44 -117.5t-109 -40.5z" />
    <glyph glyph-name="p.sups" horiz-adv-x="374" 
d="M126 339h-79v402h79v-39q28 46 89 46q58 0 95 -43.5t37 -114.5q0 -72 -37 -115.5t-95 -43.5q-61 0 -89 46v-138zM195 493q31 0 50 26t19 71q0 44 -19 69.5t-50 25.5q-33 0 -52.5 -24t-19.5 -71t19.5 -72t52.5 -25z" />
    <glyph glyph-name="q.sups" horiz-adv-x="373" 
d="M247 702v39h80v-402h-80v138q-28 -46 -88 -46q-58 0 -95 43.5t-37 115.5q0 71 37 114.5t95 43.5q60 0 88 -46zM251 590q0 46 -20 70.5t-52 24.5t-50.5 -25t-18.5 -70t18.5 -71t50.5 -26t52 25t20 72z" />
    <glyph glyph-name="r.sups" horiz-adv-x="234" 
d="M222 740v-78q-7 2 -30 2q-34 0 -50 -15t-16 -54v-157h-79v303h77v-55q27 55 82 55q11 0 16 -1z" />
    <glyph glyph-name="s.sups" horiz-adv-x="324" 
d="M165 431q-58 0 -96 27.5t-43 75.5h75q7 -45 67 -45q57 0 57 33q0 25 -50 36l-47 10q-47 9 -71.5 30t-24.5 61q0 41 37.5 65t91.5 24q52 0 89.5 -23t46.5 -71h-73q-10 36 -67 36q-23 0 -37 -7.5t-14 -19.5q0 -26 41 -34l45 -9q55 -11 82.5 -30.5t27.5 -59.5
q0 -46 -39 -72.5t-98 -26.5z" />
    <glyph glyph-name="t.sups" horiz-adv-x="225" 
d="M57 741v81h80v-81h63v-56h-63v-152q0 -23 8 -30t30 -7h25v-58h-57q-51 0 -68.5 17t-17.5 65v165h-45v56h45z" />
    <glyph glyph-name="u.sups" horiz-adv-x="360" 
d="M234 438v40q-29 -48 -88 -48q-56 0 -81 34q-22 28 -22 88v189h79v-172q0 -38 9 -55q11 -21 41 -21q62 0 62 89v159h80v-303h-80z" />
    <glyph glyph-name="v.sups" horiz-adv-x="321" 
d="M98 741l66 -214l65 214h81l-107 -303h-82l-109 303h86z" />
    <glyph glyph-name="w.sups" horiz-adv-x="441" 
d="M135 531l44 210h83l45 -210l39 210h84l-74 -303h-83l-52 221l-52 -221h-83l-74 303h83z" />
    <glyph glyph-name="x.sups" horiz-adv-x="335" 
d="M319 741l-107 -146l112 -157h-92l-66 94l-69 -94h-85l112 153l-106 150h91l61 -87l64 87h85z" />
    <glyph glyph-name="y.sups" horiz-adv-x="315" 
d="M68 339h-31v60h25q25 0 34.5 5t17.5 28l4 8l-112 301h87l63 -206l65 206h83l-110 -298q-24 -63 -48 -83.5t-78 -20.5z" />
    <glyph glyph-name="z.sups" horiz-adv-x="307" 
d="M19 438v61l158 181h-147v61h248v-61l-159 -181h164v-61h-264z" />
    <glyph glyph-name="uni2070.zero" horiz-adv-x="401" 
d="M201 431q-80 0 -123 57.5t-43 153.5t43 153.5t123 57.5q82 0 125 -57t43 -154t-43 -154t-125 -57zM117 642v-10l165 73q-17 89 -81 89q-40 0 -62 -39t-22 -113zM201 490q86 0 86 152v7l-165 -71q16 -88 79 -88z" />
    <glyph glyph-name="period.sups" horiz-adv-x="164" 
d="M126 438h-88v87h88v-87z" />
    <glyph glyph-name="hyphen.sups" horiz-adv-x="234" 
d="M211 554h-189v69h189v-69z" />
    <glyph glyph-name="comma.sups" horiz-adv-x="175" 
d="M42 438v87h90v-93l-48 -87h-47l43 93h-38z" />
    <glyph glyph-name="a.subs" horiz-adv-x="348" 
d="M136 -135q-48 0 -78 24t-30 64q0 53 53 77t148 31v11q0 56 -59 56q-54 0 -58 -49h-75q3 46 40.5 76t98.5 30q132 0 132 -130q0 -5 -0.5 -35.5t-0.5 -44.5q0 -69 6 -103h-75q0 6 -0.5 19t-0.5 21q-27 -47 -101 -47zM230 -2v11q-67 -7 -93.5 -17.5t-26.5 -34.5
q0 -17 12.5 -26t32.5 -9q75 0 75 76z" />
    <glyph glyph-name="b.subs" horiz-adv-x="374" 
d="M126 280v-144q28 46 89 46q58 0 95 -43.5t37 -114.5q0 -72 -37 -115.5t-95 -43.5q-61 0 -89 46v-39h-79v408h79zM195 -73q31 0 50 26t19 71q0 44 -19 69.5t-50 25.5q-33 0 -52.5 -24t-19.5 -71t19.5 -72t52.5 -25z" />
    <glyph glyph-name="c.subs" horiz-adv-x="344" 
d="M177 182q52 0 91 -28.5t50 -84.5h-75q-11 50 -64 50q-31 0 -51 -24t-20 -72t19.5 -71.5t51.5 -23.5q54 0 66 51h76q-13 -58 -53 -86t-92 -28q-69 0 -109 44t-40 114t41 114.5t109 44.5z" />
    <glyph glyph-name="d.subs" horiz-adv-x="374" 
d="M328 -128h-80v39q-28 -46 -89 -46q-57 0 -94 43.5t-37 115.5q0 71 36.5 114.5t94.5 43.5q61 0 89 -46v144h80v-408zM179 -73q32 0 52 25t20 72q0 46 -20 70.5t-52 24.5q-31 0 -50 -25.5t-19 -69.5q0 -45 19 -71t50 -26z" />
    <glyph glyph-name="e.subs" horiz-adv-x="355" 
d="M184 -135q-73 0 -115 45.5t-42 115.5q0 69 42.5 112.5t110.5 43.5q71 0 111.5 -49.5t36.5 -130.5h-221q2 -33 23 -53.5t51 -20.5q49 0 68 36h76q-15 -44 -51 -71.5t-90 -27.5zM179 123q-27 0 -48 -17.5t-24 -50.5h141q-2 34 -21.5 51t-47.5 17z" />
    <glyph glyph-name="f.subs" horiz-adv-x="212" 
d="M56 175v17q0 53 24.5 70.5t85.5 17.5h32v-58h-19q-27 0 -35 -6t-8 -27v-14h62v-56h-62v-247h-80v247h-42v56h42z" />
    <glyph glyph-name="g.subs" horiz-adv-x="372" 
d="M248 175h80v-271q0 -74 -40 -108q-39 -33 -110 -33q-56 0 -93 24.5t-45 72.5h76q11 -38 63 -38q38 0 56 21q13 14 13 45v38q-27 -46 -89 -46q-58 0 -95 41t-37 110t37 110t95 41q64 0 89 -46v39zM251 31q0 44 -19.5 66.5t-52.5 22.5q-31 0 -50 -24t-19 -65t19 -65t50 -24
q33 0 52.5 22.5t19.5 66.5z" />
    <glyph glyph-name="h.subs" horiz-adv-x="362" 
d="M126 280v-146q25 48 90 48q104 0 104 -122v-188h-79v169q0 37 -10 57t-42 20q-63 0 -63 -88v-158h-79v408h79z" />
    <glyph glyph-name="i.subs" horiz-adv-x="172" 
d="M47 175h79v-303h-79v303zM47 280h79v-71h-79v71z" />
    <glyph glyph-name="j.subs" horiz-adv-x="173" 
d="M46 -129v304h80v-303q0 -59 -20.5 -79t-76.5 -20h-24v60h11q20 0 25 7t5 31zM46 280h80v-71h-80v71z" />
    <glyph glyph-name="k.subs" horiz-adv-x="343" 
d="M47 280h79v-222l107 117h94l-109 -116l117 -187h-93l-78 129l-38 -40v-89h-79v408z" />
    <glyph glyph-name="l.subs" horiz-adv-x="172" 
d="M126 280v-408h-79v408h79z" />
    <glyph glyph-name="m.subs" horiz-adv-x="544" 
d="M47 -128v303h78v-35q29 42 87 42q61 0 88 -48q36 48 101 48q57 0 81 -35q21 -26 21 -86v-189h-79v171q0 42 -10 57q-12 17 -40 17q-34 0 -46.5 -22t-12.5 -64v-159h-80v171q0 44 -11 57q-11 17 -39 17q-33 0 -46 -22t-13 -64v-159h-79z" />
    <glyph glyph-name="n.subs" horiz-adv-x="362" 
d="M126 175v-41q25 48 90 48q104 0 104 -122v-188h-79v169q0 37 -10 57t-42 20q-63 0 -63 -88v-158h-79v303h79z" />
    <glyph glyph-name="o.subs" horiz-adv-x="359" 
d="M109 23q0 -47 19 -71.5t52 -24.5t52.5 24.5t19.5 71.5q0 97 -72 97q-32 0 -51.5 -25t-19.5 -72zM180 -135q-65 0 -108.5 40.5t-43.5 117.5t43.5 118t108.5 41t109 -41t44 -118t-44 -117.5t-109 -40.5z" />
    <glyph glyph-name="p.subs" horiz-adv-x="374" 
d="M126 -227h-79v402h79v-39q28 46 89 46q58 0 95 -43.5t37 -114.5q0 -72 -37 -115.5t-95 -43.5q-61 0 -89 46v-138zM195 -73q31 0 50 26t19 71q0 44 -19 69.5t-50 25.5q-33 0 -52.5 -24t-19.5 -71t19.5 -72t52.5 -25z" />
    <glyph glyph-name="q.subs" horiz-adv-x="373" 
d="M247 136v39h80v-402h-80v138q-28 -46 -88 -46q-58 0 -95 43.5t-37 115.5q0 71 37 114.5t95 43.5q60 0 88 -46zM251 24q0 46 -20 70.5t-52 24.5t-50.5 -25t-18.5 -70t18.5 -71t50.5 -26t52 25t20 72z" />
    <glyph glyph-name="r.subs" horiz-adv-x="234" 
d="M222 174v-78q-7 2 -30 2q-34 0 -50 -15t-16 -54v-157h-79v303h77v-55q27 55 82 55q11 0 16 -1z" />
    <glyph glyph-name="s.subs" horiz-adv-x="324" 
d="M165 -135q-58 0 -96 27.5t-43 75.5h75q7 -45 67 -45q57 0 57 33q0 25 -50 36l-47 10q-47 9 -71.5 30t-24.5 61q0 41 37.5 65t91.5 24q52 0 89.5 -23t46.5 -71h-73q-10 36 -67 36q-23 0 -37 -7.5t-14 -19.5q0 -26 41 -34l45 -9q55 -11 82.5 -30.5t27.5 -59.5
q0 -46 -39 -72.5t-98 -26.5z" />
    <glyph glyph-name="t.subs" horiz-adv-x="225" 
d="M57 175v81h80v-81h63v-56h-63v-152q0 -23 8 -30t30 -7h25v-58h-57q-51 0 -68.5 17t-17.5 65v165h-45v56h45z" />
    <glyph glyph-name="u.subs" horiz-adv-x="360" 
d="M234 -128v40q-29 -48 -88 -48q-56 0 -81 34q-22 28 -22 88v189h79v-172q0 -38 9 -55q11 -21 41 -21q62 0 62 89v159h80v-303h-80z" />
    <glyph glyph-name="v.subs" horiz-adv-x="321" 
d="M98 175l66 -214l65 214h81l-107 -303h-82l-109 303h86z" />
    <glyph glyph-name="w.subs" horiz-adv-x="441" 
d="M135 -35l44 210h83l45 -210l39 210h84l-74 -303h-83l-52 221l-52 -221h-83l-74 303h83z" />
    <glyph glyph-name="x.subs" horiz-adv-x="335" 
d="M319 175l-107 -146l112 -157h-92l-66 94l-69 -94h-85l112 153l-106 150h91l61 -87l64 87h85z" />
    <glyph glyph-name="y.subs" horiz-adv-x="315" 
d="M68 -227h-31v60h25q25 0 34.5 5t17.5 28l4 8l-112 301h87l63 -206l65 206h83l-110 -298q-24 -63 -48 -83.5t-78 -20.5z" />
    <glyph glyph-name="z.subs" horiz-adv-x="307" 
d="M19 -128v61l158 181h-147v61h248v-61l-159 -181h164v-61h-264z" />
    <glyph glyph-name="uni2080.zero" horiz-adv-x="401" 
d="M201 -135q-80 0 -123 57.5t-43 153.5t43 153.5t123 57.5q82 0 125 -57t43 -154t-43 -154t-125 -57zM117 76v-10l165 73q-17 89 -81 89q-40 0 -62 -39t-22 -113zM201 -76q86 0 86 152v7l-165 -71q16 -88 79 -88z" />
    <glyph glyph-name="period.subs" horiz-adv-x="164" 
d="M126 -128h-88v87h88v-87z" />
    <glyph glyph-name="hyphen.subs" horiz-adv-x="234" 
d="M211 -12h-189v69h189v-69z" />
    <glyph glyph-name="comma.subs" horiz-adv-x="175" 
d="M42 -128v87h90v-93l-48 -87h-47l43 93h-38z" />
    <glyph glyph-name="equal.subs" horiz-adv-x="369" 
d="M329 45h-289v69h289v-69zM329 -71h-289v69h289v-69z" />
    <glyph glyph-name="plus.subs" horiz-adv-x="375" 
d="M224 -128h-73v116h-121v69h121v116h73v-116h121v-69h-121v-116z" />
    <glyph glyph-name="minus.subs" horiz-adv-x="368" 
d="M30 57h309v-69h-309v69z" />
    <glyph glyph-name="one.frac" horiz-adv-x="236" 
d="M182 317h-80v297h-90v56q48 1 71.5 12t37.5 43h61v-408z" />
    <glyph glyph-name="two.frac" horiz-adv-x="351" 
d="M179 732q62 0 100.5 -29t38.5 -81q0 -59 -50.5 -116.5t-149.5 -121.5h206v-67h-303v65q133 105 169 144q46 51 46 91q0 27 -16.5 41.5t-43.5 14.5q-30 0 -50 -20t-19 -64h-79q-2 65 39.5 104t111.5 39z" />
    <glyph glyph-name="three.frac" horiz-adv-x="366" 
d="M182 369q33 0 54 17.5t21 46.5q0 63 -95 63h-24v64h20q90 0 90 59q0 26 -19 40t-46 14q-68 0 -78 -70h-77q5 62 48 95.5t112 33.5q57 0 99 -27.5t42 -81.5q0 -29 -16 -52.5t-41 -37.5q31 -14 48.5 -40.5t17.5 -58.5q0 -60 -45.5 -92t-112.5 -32t-109.5 37t-47.5 99h77
q5 -34 26.5 -55.5t55.5 -21.5z" />
    <glyph glyph-name="four.frac" horiz-adv-x="379" 
d="M217 622l-114 -145h114v145zM363 477v-67h-66v-93h-80v93h-201v62l203 253h78v-248h66z" />
    <glyph glyph-name="five.frac" horiz-adv-x="370" 
d="M184 369q33 0 54 21.5t21 58.5q0 40 -22 61.5t-54 21.5q-52 0 -71 -41l-73 4l28 230h256v-67h-190l-12 -90q29 23 82 23q57 0 97.5 -37.5t40.5 -103.5t-45 -103t-113 -37q-67 0 -108 37.5t-46 97.5h76q4 -36 24 -56t55 -20z" />
    <glyph glyph-name="six.frac" horiz-adv-x="367" 
d="M114 449q0 -38 20 -59t53 -21t53 21t20 59q0 36 -20 58t-53 22t-53 -21t-20 -59zM191 673q-37 0 -59 -32.5t-21 -89.5q31 38 91 38q59 0 99 -39t40 -101q0 -63 -43 -101t-111 -38q-79 0 -118.5 54.5t-39.5 145.5q0 98 40.5 160t126.5 62q64 0 99 -33.5t39 -80.5h-80
q-4 55 -63 55z" />
    <glyph glyph-name="seven.frac" horiz-adv-x="313" 
d="M11 658v67h301v-67q-85 -81 -123 -156.5t-44 -184.5h-87q2 102 49 189t123 152h-219z" />
    <glyph glyph-name="eight.frac" horiz-adv-x="378" 
d="M189 732q66 0 106 -29t40 -77q0 -58 -49 -91q61 -35 61 -101q0 -59 -44.5 -91.5t-113.5 -32.5t-113 32.5t-44 91.5q0 67 61 101q-49 31 -49 91q0 47 39.5 76.5t105.5 29.5zM189 505q-35 0 -55 -18t-20 -49t20 -50t55 -19t55.5 19t20.5 50t-20.5 49t-55.5 18zM256 617
q0 26 -17.5 41t-49.5 15q-31 0 -49 -15t-18 -41t18 -42t49 -16q32 0 49.5 15.5t17.5 42.5z" />
    <glyph glyph-name="nine.frac" horiz-adv-x="364" 
d="M252 593q0 38 -20 59t-53 21t-52.5 -21t-19.5 -59q0 -37 20 -58.5t52 -21.5t52.5 21.5t20.5 58.5zM174 369q38 0 60 32.5t22 89.5q-31 -38 -93 -38q-58 0 -97.5 39t-39.5 101q0 63 42 101t111 38q79 0 118.5 -54.5t39.5 -146.5q0 -97 -41 -159t-127 -62q-62 0 -98 33.5
t-38 79.5h78q6 -54 63 -54z" />
    <glyph glyph-name="zero.frac" horiz-adv-x="401" 
d="M201 310q-80 0 -123 57.5t-43 153.5t43 153.5t123 57.5q82 0 125 -57t43 -154t-43 -154t-125 -57zM201 369q86 0 86 152t-86 152q-40 0 -62 -39t-22 -113t22 -113t62 -39z" />
    <glyph glyph-name="zero.frac_zero" horiz-adv-x="401" 
d="M201 310q-80 0 -123 57.5t-43 153.5t43 153.5t123 57.5q82 0 125 -57t43 -154t-43 -154t-125 -57zM117 521v-10l165 73q-17 89 -81 89q-40 0 -62 -39t-22 -113zM201 369q86 0 86 152v7l-165 -71q16 -88 79 -88z" />
    <glyph glyph-name="one.dnom" horiz-adv-x="236" 
d="M182 0h-80v297h-90v56q48 1 71.5 12t37.5 43h61v-408z" />
    <glyph glyph-name="two.dnom" horiz-adv-x="351" 
d="M179 415q62 0 100.5 -29t38.5 -81q0 -59 -50.5 -116.5t-149.5 -121.5h206v-67h-303v65q133 105 169 144q46 51 46 91q0 27 -16.5 41.5t-43.5 14.5q-30 0 -50 -20t-19 -64h-79q-2 65 39.5 104t111.5 39z" />
    <glyph glyph-name="three.dnom" horiz-adv-x="366" 
d="M182 52q33 0 54 17.5t21 46.5q0 63 -95 63h-24v64h20q90 0 90 59q0 26 -19 40t-46 14q-68 0 -78 -70h-77q5 62 48 95.5t112 33.5q57 0 99 -27.5t42 -81.5q0 -29 -16 -52.5t-41 -37.5q31 -14 48.5 -40.5t17.5 -58.5q0 -60 -45.5 -92t-112.5 -32t-109.5 37t-47.5 99h77
q5 -34 26.5 -55.5t55.5 -21.5z" />
    <glyph glyph-name="four.dnom" horiz-adv-x="379" 
d="M217 305l-114 -145h114v145zM363 160v-67h-66v-93h-80v93h-201v62l203 253h78v-248h66z" />
    <glyph glyph-name="five.dnom" horiz-adv-x="370" 
d="M184 52q33 0 54 21.5t21 58.5q0 40 -22 61.5t-54 21.5q-52 0 -71 -41l-73 4l28 230h256v-67h-190l-12 -90q29 23 82 23q57 0 97.5 -37.5t40.5 -103.5t-45 -103t-113 -37q-67 0 -108 37.5t-46 97.5h76q4 -36 24 -56t55 -20z" />
    <glyph glyph-name="six.dnom" horiz-adv-x="367" 
d="M114 132q0 -38 20 -59t53 -21t53 21t20 59q0 36 -20 58t-53 22t-53 -21t-20 -59zM191 356q-37 0 -59 -32.5t-21 -89.5q31 38 91 38q59 0 99 -39t40 -101q0 -63 -43 -101t-111 -38q-79 0 -118.5 54.5t-39.5 145.5q0 98 40.5 160t126.5 62q64 0 99 -33.5t39 -80.5h-80
q-4 55 -63 55z" />
    <glyph glyph-name="seven.dnom" horiz-adv-x="313" 
d="M11 341v67h301v-67q-85 -81 -123 -156.5t-44 -184.5h-87q2 102 49 189t123 152h-219z" />
    <glyph glyph-name="eight.dnom" horiz-adv-x="378" 
d="M189 415q66 0 106 -29t40 -77q0 -58 -49 -91q61 -35 61 -101q0 -59 -44.5 -91.5t-113.5 -32.5t-113 32.5t-44 91.5q0 67 61 101q-49 31 -49 91q0 47 39.5 76.5t105.5 29.5zM189 188q-35 0 -55 -18t-20 -49t20 -50t55 -19t55.5 19t20.5 50t-20.5 49t-55.5 18zM256 300
q0 26 -17.5 41t-49.5 15q-31 0 -49 -15t-18 -41t18 -42t49 -16q32 0 49.5 15.5t17.5 42.5z" />
    <glyph glyph-name="nine.dnom" horiz-adv-x="364" 
d="M252 276q0 38 -20 59t-53 21t-52.5 -21t-19.5 -59q0 -37 20 -58.5t52 -21.5t52.5 21.5t20.5 58.5zM174 52q38 0 60 32.5t22 89.5q-31 -38 -93 -38q-58 0 -97.5 39t-39.5 101q0 63 42 101t111 38q79 0 118.5 -54.5t39.5 -146.5q0 -97 -41 -159t-127 -62q-62 0 -98 33.5
t-38 79.5h78q6 -54 63 -54z" />
    <glyph glyph-name="zero.dnom" horiz-adv-x="401" 
d="M201 -7q-80 0 -123 57.5t-43 153.5t43 153.5t123 57.5q82 0 125 -57t43 -154t-43 -154t-125 -57zM201 52q86 0 86 152t-86 152q-40 0 -62 -39t-22 -113t22 -113t62 -39z" />
    <glyph glyph-name="zero.dnom_zero" horiz-adv-x="401" 
d="M201 -7q-80 0 -123 57.5t-43 153.5t43 153.5t123 57.5q82 0 125 -57t43 -154t-43 -154t-125 -57zM117 204v-10l165 73q-17 89 -81 89q-40 0 -62 -39t-22 -113zM201 52q86 0 86 152v7l-165 -71q16 -88 79 -88z" />
    <glyph glyph-name="ampersand.case" horiz-adv-x="713" 
d="M271 -13q-108 0 -175.5 60.5t-67.5 152.5q0 79 49 133.5t130 84.5q-78 93 -78 165q0 70 56.5 113t143.5 43q78 0 134.5 -38.5t56.5 -119.5q0 -63 -39 -111t-105 -77l129 -139q25 61 31 143h111q-11 -122 -68 -221l164 -176h-150l-82 88q-101 -101 -240 -101zM281 77
q99 0 167 79l-182 197q-125 -45 -125 -148q0 -59 39 -93.5t101 -34.5zM243 588q0 -57 74 -131l1 -2q48 20 74 52.5t26 70.5q0 39 -24 58t-63 19q-38 0 -63 -17.5t-25 -49.5z" />
    <glyph glyph-name="hyphen.case" horiz-adv-x="413" 
d="M367 319h-322v96h322v-96z" />
    <glyph glyph-name="endash.case" horiz-adv-x="510" 
d="M475 319h-440v96h440v-96z" />
    <glyph glyph-name="emdash.case" horiz-adv-x="724" 
d="M692 319h-660v96h660v-96z" />
    <glyph glyph-name="question.case" horiz-adv-x="532" 
d="M276 738q102 0 173.5 -45t71.5 -132q0 -115 -142 -201q-50 -33 -67 -54.5t-17 -63.5v-31h-115v34q0 63 28.5 102t92.5 78q50 31 76.5 60t26.5 68q0 44 -36 66.5t-95 22.5q-76 0 -112.5 -35.5t-38.5 -94.5h-111q0 101 74.5 163.5t190.5 62.5zM301 0h-125v125h125v-125z
" />
    <glyph glyph-name="questiondown.case" horiz-adv-x="532" 
d="M257 -13q-103 0 -174 45t-71 133q0 33 12 62t35 52.5t44 40t50 34.5q51 33 67.5 54t16.5 64v31h116v-34q0 -62 -28.5 -100.5t-92.5 -79.5q-63 -39 -79 -56q-24 -27 -24 -61q0 -43 35.5 -66t94.5 -23q76 0 113 37.5t39 94.5l110 -1q0 -101 -74 -164t-190 -63zM357 600
h-125v125h125v-125z" />
    <glyph glyph-name="exclam.case" horiz-adv-x="266" 
d="M167 212h-67l-29 304v209h124v-209zM196 0h-125v125h125v-125z" />
    <glyph glyph-name="exclamdown.case" horiz-adv-x="266" 
d="M99 502h67l29 -303v-199h-124v199zM196 600h-125v125h125v-125z" />
    <glyph glyph-name="guilsinglleft.case" horiz-adv-x="304" 
d="M172 139l-159 229l159 228h106l-143 -228l143 -229h-106z" />
    <glyph glyph-name="guilsinglright.case" horiz-adv-x="304" 
d="M291 368l-159 -229h-105l143 229l-143 228h105z" />
    <glyph glyph-name="guillemotleft.case" horiz-adv-x="528" 
d="M172 139l-159 229l159 228h106l-143 -228l143 -229h-106zM396 139l-159 229l159 228h106l-143 -228l143 -229h-106z" />
    <glyph glyph-name="guillemotright.case" horiz-adv-x="528" 
d="M291 368l-159 -229h-105l143 229l-143 228h105zM515 368l-159 -229h-105l143 229l-143 228h105z" />
    <glyph glyph-name="parenleft.case" horiz-adv-x="251" 
d="M28 364q0 185 111 361h109q-103 -166 -103 -361q0 -198 103 -364h-109q-111 176 -111 364z" />
    <glyph glyph-name="parenright.case" horiz-adv-x="251" 
d="M223 364q0 -190 -111 -364h-108q102 164 102 364q0 197 -102 361h108q111 -174 111 -361z" />
    <glyph glyph-name="bracketleft.case" horiz-adv-x="334" 
d="M80 725h234v-84h-131v-557h131v-84h-234v725z" />
    <glyph glyph-name="bracketright.case" horiz-adv-x="334" 
d="M20 725h234v-725h-234v84h130v557h-130v84z" />
    <glyph glyph-name="braceleft.case" horiz-adv-x="309" 
d="M289 0h-44q-94 0 -127.5 33t-33.5 123v62q0 52 -15 77.5t-61 25.5v84q46 0 61 25.5t15 77.5v62q0 90 34 122.5t127 32.5h44v-87h-32q-40 0 -53 -14t-13 -56v-68q0 -66 -19.5 -95.5t-61.5 -40.5v-2q41 -11 61 -41.5t20 -95.5v-68q0 -42 13 -56t53 -14h32v-87z" />
    <glyph glyph-name="braceright.case" horiz-adv-x="309" 
d="M20 0v87h32q40 0 53 14t13 56v68q0 66 19.5 96.5t61.5 40.5v2q-42 10 -61.5 40t-19.5 96v68q0 42 -13 56t-53 14h-32v87h44q93 0 127 -32.5t34 -122.5v-62q0 -52 15 -77.5t61 -25.5v-84q-46 0 -61 -25.5t-15 -77.5v-62q0 -90 -33.5 -123t-127.5 -33h-44z" />
    <glyph glyph-name="bar.case" horiz-adv-x="252" 
d="M80 725h92v-725h-92v725z" />
    <glyph glyph-name="brokenbar.case" horiz-adv-x="231" 
d="M70 725h92v-260h-92v260zM70 260h92v-260h-92v260z" />
    <glyph glyph-name="periodcentered.case" horiz-adv-x="243" 
d="M184 301h-125v125h125v-125z" />
    <glyph glyph-name="bullet.case" horiz-adv-x="447" 
d="M43 374q0 73 52 125t124 52q78 0 131 -51.5t53 -125.5q0 -78 -52.5 -130.5t-131.5 -52.5q-73 0 -124.5 53t-51.5 130z" />
    <glyph glyph-name="plus.case" 
d="M390 95h-100v220h-224v96h224v218h100v-218h223v-96h-223v-220z" />
    <glyph glyph-name="minus.case" 
d="M69 411h541v-96h-541v96z" />
    <glyph glyph-name="divide.case" 
d="M278 124v122h125v-122h-125zM278 471v122h125v-122h-125zM602 308h-525v96h525v-96z" />
    <glyph glyph-name="multiply.case" 
d="M574 194l-68 -69l-170 170l-165 -165l-67 66l165 166l-165 165l69 69l165 -164l166 164l66 -66l-165 -166z" />
    <glyph glyph-name="equal.case" 
d="M591 420h-503v97h503v-97zM591 216h-503v96h503v-96z" />
    <glyph glyph-name="plusminus.case" 
d="M288 480v146h102v-146h215v-97h-215v-148h-102v148h-215v97h215zM605 95h-532v96h532v-96z" />
    <glyph glyph-name="less.case" 
d="M78 407l513 225v-109l-388 -160l388 -159v-108l-513 222v89z" />
    <glyph glyph-name="greater.case" 
d="M601 407v-89l-514 -222v108l389 159l-389 160v109z" />
    <glyph glyph-name="lessequal.case" 
d="M216 424l382 -109v-104l-519 169v88l519 173v-106zM77 95v96h525v-96h-525z" />
    <glyph glyph-name="greaterequal.case" 
d="M463 424l-383 111v106l520 -173v-88l-520 -169v104zM602 95h-525v96h525v-96z" />
    <glyph glyph-name="notequal.case" 
d="M205 216h-117v96h168l57 108h-225v97h277l76 144l83 -42l-55 -102h122v-97h-174l-57 -108h231v-96h-283l-84 -159l-82 40z" />
    <glyph glyph-name="acute.case" horiz-adv-x="293" 
d="M271 886l-152 -113h-97l108 113h141z" />
    <glyph glyph-name="breve.case" horiz-adv-x="366" 
d="M261 886h83q-13 -118 -162 -118q-145 0 -160 118h83q7 -55 78 -55q69 0 78 55z" />
    <glyph glyph-name="caron.case" horiz-adv-x="407" 
d="M155 773l-133 113h114l67 -54l69 54h113l-136 -113h-94z" />
    <glyph glyph-name="cedilla.case" horiz-adv-x="248" 
d="M22 -176l16 41q30 -14 58 -14q60 0 60 31q0 30 -43 30q-24 0 -38 -9l-30 17l51 83h53l-32 -51q17 3 32 3q35 0 56 -18.5t21 -49.5q0 -37 -33.5 -59.5t-76.5 -22.5q-55 0 -94 19z" />
    <glyph glyph-name="circumflex.case" horiz-adv-x="407" 
d="M252 886l133 -113h-114l-67 54l-68 -54h-114l136 113h94z" />
    <glyph glyph-name="dieresis.case" horiz-adv-x="375" 
d="M22 881h98v-103h-98v103zM254 881h99v-103h-99v103z" />
    <glyph glyph-name="dotaccent.case" horiz-adv-x="150" 
d="M22 882h106v-103h-106v103z" />
    <glyph glyph-name="grave.case" horiz-adv-x="293" 
d="M178 773l-156 113h140l109 -113h-93z" />
    <glyph glyph-name="hungarumlaut.case" horiz-adv-x="466" 
d="M271 886l-152 -113h-97l108 113h141zM444 886l-152 -113h-96l107 113h141z" />
    <glyph glyph-name="macron.case" horiz-adv-x="348" 
d="M326 789h-304v80h304v-80z" />
    <glyph glyph-name="ogonek.case" horiz-adv-x="227" 
d="M91 0h114q-89 -44 -89 -79q0 -40 46 -40q21 0 43 8v-67q-27 -10 -66 -10q-47 0 -82 22.5t-35 70.5q0 56 69 95z" />
    <glyph glyph-name="ring.case" horiz-adv-x="225" 
d="M112 935q39 0 65 -23.5t26 -61.5q0 -37 -26 -61t-65 -24q-38 0 -64 24t-26 61t26 61t64 24zM112 893q-18 0 -30.5 -12.5t-12.5 -30.5t12.5 -30t30.5 -12t30.5 12t12.5 30t-12.5 30.5t-30.5 12.5z" />
    <glyph glyph-name="tilde.case" horiz-adv-x="422" 
d="M274 843q42 0 49 42h77q-20 -113 -122 -113q-32 0 -73 22t-59 22q-42 0 -46 -42h-78q10 60 43.5 86.5t77.5 26.5q34 0 72.5 -22t58.5 -22z" />
    <glyph glyph-name="a.salt" horiz-adv-x="606" 
d="M432 459v79h104v-538h-104v76q-52 -89 -168 -89q-97 0 -164 76.5t-67 204.5t67 204t164 76q116 0 168 -89zM436 268q0 95 -42 144t-106 49q-66 0 -105.5 -51.5t-39.5 -141.5t39.5 -142t105.5 -52q64 0 106 49.5t42 144.5z" />
    <glyph glyph-name="aacute.salt" horiz-adv-x="606" 
d="M432 459v79h104v-538h-104v76q-52 -89 -168 -89q-97 0 -164 76.5t-67 204.5t67 204t164 76q116 0 168 -89zM436 268q0 95 -42 144t-106 49q-66 0 -105.5 -51.5t-39.5 -141.5t39.5 -142t105.5 -52q64 0 106 49.5t42 144.5zM461 725l-136 -116h-83l91 116h128z" />
    <glyph glyph-name="abreve.salt" horiz-adv-x="606" 
d="M432 459v79h104v-538h-104v76q-52 -89 -168 -89q-97 0 -164 76.5t-67 204.5t67 204t164 76q116 0 168 -89zM436 268q0 95 -42 144t-106 49q-66 0 -105.5 -51.5t-39.5 -141.5t39.5 -142t105.5 -52q64 0 106 49.5t42 144.5zM374 725h78q-15 -121 -163 -121q-77 0 -116.5 34
t-43.5 87h79q7 -58 82 -58q77 0 84 58z" />
    <glyph glyph-name="acircumflex.salt" horiz-adv-x="606" 
d="M432 459v79h104v-538h-104v76q-52 -89 -168 -89q-97 0 -164 76.5t-67 204.5t67 204t164 76q116 0 168 -89zM436 268q0 95 -42 144t-106 49q-66 0 -105.5 -51.5t-39.5 -141.5t39.5 -142t105.5 -52q64 0 106 49.5t42 144.5zM341 725l134 -116h-102l-79 51l-80 -51h-102
l137 116h92z" />
    <glyph glyph-name="adieresis.salt" horiz-adv-x="606" 
d="M432 459v79h104v-538h-104v76q-52 -89 -168 -89q-97 0 -164 76.5t-67 204.5t67 204t164 76q116 0 168 -89zM436 268q0 95 -42 144t-106 49q-66 0 -105.5 -51.5t-39.5 -141.5t39.5 -142t105.5 -52q64 0 106 49.5t42 144.5zM134 620v105h98v-105h-98zM366 725h99v-105h-99
v105z" />
    <glyph glyph-name="agrave.salt" horiz-adv-x="606" 
d="M432 459v79h104v-538h-104v76q-52 -89 -168 -89q-97 0 -164 76.5t-67 204.5t67 204t164 76q116 0 168 -89zM436 268q0 95 -42 144t-106 49q-66 0 -105.5 -51.5t-39.5 -141.5t39.5 -142t105.5 -52q64 0 106 49.5t42 144.5zM247 609l-136 116h128l92 -116h-84z" />
    <glyph glyph-name="amacron.salt" horiz-adv-x="606" 
d="M432 459v79h104v-538h-104v76q-52 -89 -168 -89q-97 0 -164 76.5t-67 204.5t67 204t164 76q116 0 168 -89zM436 268q0 95 -42 144t-106 49q-66 0 -105.5 -51.5t-39.5 -141.5t39.5 -142t105.5 -52q64 0 106 49.5t42 144.5zM446 632h-304v81h304v-81z" />
    <glyph glyph-name="aogonek.salt" horiz-adv-x="606" 
d="M432 459v79h104v-538q-92 -41 -92 -81q0 -38 53 -38q18 0 48 7v-67q-34 -9 -70 -9q-52 0 -88.5 21.5t-36.5 69.5q0 60 82 97v76q-52 -89 -168 -89q-97 0 -164 76.5t-67 204.5t67 204t164 76q116 0 168 -89zM436 268q0 95 -42 144t-106 49q-66 0 -105.5 -51.5
t-39.5 -141.5t39.5 -142t105.5 -52q64 0 106 49.5t42 144.5z" />
    <glyph glyph-name="aring.salt" horiz-adv-x="606" 
d="M432 459v79h104v-538h-104v76q-52 -89 -168 -89q-97 0 -164 76.5t-67 204.5t67 204t164 76q116 0 168 -89zM436 268q0 95 -42 144t-106 49q-66 0 -105.5 -51.5t-39.5 -141.5t39.5 -142t105.5 -52q64 0 106 49.5t42 144.5zM288 774q39 0 65.5 -24t26.5 -62t-26.5 -62
t-65.5 -24t-65 24t-26 62t26 62t65 24zM288 731q-18 0 -30 -12.5t-12 -30.5t12 -29.5t30 -11.5t30.5 11.5t12.5 29.5t-12.5 30.5t-30.5 12.5z" />
    <glyph glyph-name="atilde.salt" horiz-adv-x="606" 
d="M432 459v79h104v-538h-104v76q-52 -89 -168 -89q-97 0 -164 76.5t-67 204.5t67 204t164 76q116 0 168 -89zM436 268q0 95 -42 144t-106 49q-66 0 -105.5 -51.5t-39.5 -141.5t39.5 -142t105.5 -52q64 0 106 49.5t42 144.5zM363 685q41 0 49 45h77q-9 -64 -43.5 -92
t-78.5 -28q-33 0 -73.5 23.5t-59.5 23.5q-40 0 -46 -44h-78q9 62 43 90.5t79 28.5q32 0 71 -23.5t60 -23.5z" />
    <glyph glyph-name="l.ss02" horiz-adv-x="270" 
d="M67 138v587h104v-571q0 -42 10.5 -55t47.5 -13h20v-86h-51q-81 0 -106 27t-25 111z" />
    <glyph glyph-name="lacute.ss02" horiz-adv-x="270" 
d="M322 886l-152 -113h-97l108 113h141zM67 138v587h104v-571q0 -42 10.5 -55t47.5 -13h20v-86h-51q-81 0 -106 27t-25 111z" />
    <glyph glyph-name="lcaron.ss02" horiz-adv-x="331" 
d="M351 725l-70 -170h-67l30 170h107zM69 138v587h104v-571q0 -42 10.5 -55t47.5 -13h20v-86h-51q-81 0 -106 27t-25 111z" />
    <glyph glyph-name="uni013C.ss02" horiz-adv-x="270" 
d="M67 138v587h104v-571q0 -42 10.5 -55t47.5 -13h20v-86h-51q-81 0 -106 27t-25 111zM108 -128v92h98v-98l-44 -90h-57l39 96h-36z" />
    <glyph glyph-name="ldot.ss02" horiz-adv-x="339" 
d="M67 138v587h104v-571q0 -42 10.5 -55t47.5 -13h20v-86h-51q-81 0 -106 27t-25 111zM241 465h98v-105h-98v105z" />
    <glyph glyph-name="lslash.ss02" horiz-adv-x="305" 
d="M18 262v86l74 48v329h104v-262l71 47v-87l-71 -47v-222q0 -42 10.5 -55t47.5 -13h20v-86h-51q-81 0 -106 27t-25 111v171z" />
    <glyph glyph-name="fl.ss02" horiz-adv-x="573" 
d="M89 538v36q0 89 33.5 120t127.5 31h47v-83h-40q-40 0 -52 -12.5t-12 -54.5v-37h104v-79h-104v-459h-104v459h-75v79h75zM385 138v587h104v-571q0 -42 10.5 -55t47.5 -13h20v-86h-51q-81 0 -106 27t-25 111z" />
    <glyph glyph-name="germandbls.ss03" horiz-adv-x="639" 
d="M174 -175h-104v660q0 126 56 184q64 68 203 68q102 0 166.5 -46.5t64.5 -128.5q0 -109 -100 -153q65 -17 104 -65t39 -130q0 -115 -75 -171t-191 -56q-54 0 -111 11l19 94q45 -15 94 -15q67 0 110.5 33t43.5 103q0 141 -196 141h-7v91h5q160 0 160 108q0 47 -34.5 74.5
t-93.5 27.5q-88 0 -123 -46q-30 -36 -30 -123v-661z" />
    <glyph glyph-name="_792" horiz-adv-x="606" 
d="M432 459v79h104v-538h-104v76q-52 -89 -168 -89q-97 0 -164 76.5t-67 204.5t67 204t164 76q116 0 168 -89zM436 268q0 95 -42 144t-106 49q-66 0 -105.5 -51.5t-39.5 -141.5t39.5 -142t105.5 -52q64 0 106 49.5t42 144.5z" />
    </font>
</defs>
</svg>
